<?xml version="1.0" standalone="no"?>
<!DOCTYPE svg PUBLIC "-//W3C//DTD SVG 1.1//EN" "http://www.w3.org/Graphics/SVG/1.1/DTD/svg11.dtd" >
<svg xmlns="http://www.w3.org/2000/svg" xmlns:xlink="http://www.w3.org/1999/xlink" version="1.1">
<metadata>
Created by FontForge 20170731 at Wed Dec 12 22:24:30 2007
 By Aleksey,,,
Copyright (c) 2002 The Hoefler Type Foundry, Inc., dba Hoefler &#38; Frere-Jones. All Rights Reserved.
</metadata>
<defs>
<font id="GothamPro-MediumItalic" horiz-adv-x="500" >
  <font-face 
    font-family="Gotham Pro Medium"
    font-weight="500"
    font-style="italic"
    font-stretch="normal"
    units-per-em="1000"
    panose-1="2 0 6 3 4 0 0 9 0 4"
    ascent="800"
    descent="-200"
    x-height="528"
    cap-height="700"
    bbox="-131 -200 1221 922"
    underline-thickness="20"
    underline-position="-173"
    slope="-12"
    unicode-range="U+0020-FB04"
  />
<missing-glyph 
d="M0 0v700h500v-700h-500zM81 49h340l-171 255zM50 95l170 254l-170 256v-510zM451 95v510l-172 -256zM250 395l171 255h-340z" />
    <glyph glyph-name="fi" unicode="fi" horiz-adv-x="683" 
d="M567 609l32 115h130l-31 -115h-131zM33 0l114 424h-67l28 104h67l10 43q44 164 201 164q61 0 104 -18l-27 -101q-38 16 -74 16q-67 0 -87 -74l-8 -30h146l-28 -104h-144l-114 -424h-121zM408 0l142 528h121l-142 -528h-121z" />
    <glyph glyph-name="fl" unicode="fl" horiz-adv-x="683" 
d="M33 0l114 424h-67l28 104h67l10 43q44 164 201 164q61 0 104 -18l-27 -101q-38 16 -74 16q-67 0 -87 -74l-8 -30h146l-28 -104h-144l-114 -424h-121zM408 0l196 730h121l-196 -730h-121z" />
    <glyph glyph-name="ffi" unicode="ffi" horiz-adv-x="1079" 
d="M964 609l31 115h130l-31 -115h-130zM429 0l114 424h-67l28 104h67l11 43q41 164 200 164q61 0 104 -18l-27 -101q-38 16 -74 16q-66 0 -87 -74l-8 -30h146l-28 -104h-144l-114 -424h-121zM33 0l114 424h-67l28 104h67l10 43q44 164 201 164q61 0 104 -18l-27 -101
q-38 16 -74 16q-67 0 -87 -74l-8 -30h146l-28 -104h-144l-114 -424h-121zM804 0l142 528h121l-142 -528h-121z" />
    <glyph glyph-name="ffl" unicode="ffl" horiz-adv-x="1079" 
d="M429 0l114 424h-67l28 104h67l11 43q41 164 200 164q61 0 104 -18l-27 -101q-38 16 -74 16q-66 0 -87 -74l-8 -30h146l-28 -104h-144l-114 -424h-121zM33 0l114 424h-67l28 104h67l10 43q44 164 201 164q61 0 104 -18l-27 -101q-38 16 -74 16q-67 0 -87 -74l-8 -30h146
l-28 -104h-144l-114 -424h-121zM804 0l196 730h121l-196 -730h-121z" />
    <glyph glyph-name=".notdef" 
d="M0 0v700h500v-700h-500zM81 49h340l-171 255zM50 95l170 254l-170 256v-510zM451 95v510l-172 -256zM250 395l171 255h-340z" />
    <glyph glyph-name=".null" horiz-adv-x="0" 
 />
    <glyph glyph-name="nonmarkingreturn" horiz-adv-x="333" 
 />
    <glyph glyph-name="space" unicode=" " horiz-adv-x="300" 
 />
    <glyph glyph-name="exclam" unicode="!" horiz-adv-x="303" 
d="M106 221l81 444l10 35h142l-10 -35l-156 -444h-67zM14 0l36 137h134l-37 -137h-133z" />
    <glyph glyph-name="quotedbl" unicode="&#x22;" horiz-adv-x="493" 
d="M323 401l87 299h138l-2 -5l-159 -294h-64zM100 401l86 299h138l-1 -5l-159 -294h-64z" />
    <glyph glyph-name="numbersign" unicode="#" horiz-adv-x="687" 
d="M55 0l56 161h-93l28 104h102l60 174h-105l28 104h113l55 157h107l-55 -157h164l55 157h106l-54 -157h93l-27 -104h-103l-60 -174h105l-27 -104h-115l-56 -161h-106l56 161h-164l-56 -161h-107zM255 265h163l61 174h-164z" />
    <glyph glyph-name="dollar" unicode="$" horiz-adv-x="631" 
d="M170 -98l31 106q-132 26 -205 119l90 76q62 -71 150 -90l56 195q-86 32 -127.5 72t-41.5 110q0 90 75.5 150t186.5 60q13 0 19 -1l18 59h87l-20 -70q93 -23 159 -90l-83 -82q-52 49 -111 66l-53 -186q83 -31 124 -72.5t41 -110.5q0 -94 -78 -153.5t-196 -59.5h-6l-29 -98
h-87zM328 424l48 169q-58 1 -92.5 -25t-34.5 -65q0 -26 17.5 -43.5t61.5 -35.5zM314 106q58 2 91.5 27.5t33.5 67.5q0 26 -16.5 44t-57.5 36z" />
    <glyph glyph-name="percent" unicode="%" horiz-adv-x="862" 
d="M236 346q-67 0 -108 42t-41 109q0 82 55.5 146.5t137.5 64.5q66 0 107.5 -42.5t41.5 -108.5q0 -82 -55.5 -146.5t-137.5 -64.5zM62 0l675 700h109l-676 -700h-108zM628 -8q-67 0 -108 42.5t-41 108.5q0 83 55.5 147t137.5 64q66 0 107.5 -42t41.5 -108
q0 -83 -55.5 -147.5t-137.5 -64.5zM241 420q44 0 74 41.5t30 91.5q0 38 -18.5 59.5t-52.5 21.5q-44 0 -74 -42t-30 -91q0 -38 19 -59.5t52 -21.5zM633 66q44 0 74.5 42t30.5 91q0 38 -19 60t-52 22q-44 0 -74.5 -42t-30.5 -92q0 -37 19 -59t52 -22z" />
    <glyph glyph-name="ampersand" unicode="&#x26;" horiz-adv-x="694" 
d="M532 -14l-65 90q-108 -86 -226 -86q-95 0 -155.5 49.5t-60.5 134.5q0 73 53 132.5t160 91.5q-40 67 -40 125q0 78 59.5 133.5t151.5 55.5q82 0 133 -45t51 -116q0 -130 -200 -193l98 -135q45 49 94 129l77 -52q-57 -89 -114 -152l75 -104zM341 428q79 26 110 53.5
t31 62.5q0 29 -21 50t-58 21q-41 0 -68.5 -27.5t-27.5 -65.5q0 -41 34 -94zM254 92q78 0 157 62l-123 171q-73 -23 -109 -61t-36 -82q0 -41 29.5 -65.5t81.5 -24.5z" />
    <glyph glyph-name="quotesingle" unicode="'" horiz-adv-x="269" 
d="M100 401l86 299h138l-1 -5l-159 -294h-64z" />
    <glyph glyph-name="parenleft" unicode="(" horiz-adv-x="440" 
d="M251 -142q-181 149 -181 354q0 161 102.5 293.5t293.5 209.5l44 -90q-156 -70 -236 -179t-80 -230q0 -144 131 -282z" />
    <glyph glyph-name="parenright" unicode=")" horiz-adv-x="440" 
d="M-13 -139l-44 90q156 70 236 179t80 230q0 145 -132 281l75 77q181 -149 181 -354q0 -161 -102.5 -294t-293.5 -209z" />
    <glyph glyph-name="asterisk" unicode="*" horiz-adv-x="430" 
d="M276 379l-68 17l45 115l-116 -45l-19 69l124 18l-97 78l50 50l77 -97l19 121l67 -17l-45 -115l116 45l19 -68l-124 -19l98 -77l-51 -51l-77 97z" />
    <glyph glyph-name="plus" unicode="+" horiz-adv-x="646" 
d="M224 106l51 191h-192l30 110h192l50 191h115l-51 -191h192l-30 -110h-192l-51 -191h-114z" />
    <glyph glyph-name="comma" unicode="," horiz-adv-x="293" 
d="M-45 -145l-9 51q99 14 115 94h-52l37 137h133l-31 -116q-22 -84 -68 -122t-125 -44z" />
    <glyph glyph-name="hyphen" unicode="-" horiz-adv-x="411" 
d="M53 247l32 119h296l-32 -119h-296z" />
    <glyph glyph-name="period" unicode="." horiz-adv-x="293" 
d="M9 0l37 137h133l-37 -137h-133z" />
    <glyph glyph-name="slash" unicode="/" horiz-adv-x="521" 
d="M-131 -128l692 926h116l-692 -926h-116z" />
    <glyph glyph-name="zero" unicode="0" horiz-adv-x="724" 
d="M330 -12q-120 0 -191 77.5t-71 204.5q0 80 26.5 158.5t73 141.5t118 102.5t153.5 39.5q119 0 190 -77.5t71 -204.5q0 -80 -26.5 -158.5t-72.5 -141.5t-117.5 -102.5t-153.5 -39.5zM339 99q65 0 120.5 51.5t84.5 127t29 152.5q0 79 -38 125t-106 46q-65 0 -120.5 -51.5
t-84.5 -127t-29 -152.5q0 -79 38 -125t106 -46z" />
    <glyph glyph-name="one" unicode="1" horiz-adv-x="404" 
d="M94 0l154 573l-133 -34l-2 106l207 60h85l-189 -705h-122z" />
    <glyph glyph-name="two" unicode="2" horiz-adv-x="606" 
d="M-27 0l27 100l373 268q56 40 82 74t26 71q0 40 -28.5 63t-77.5 23q-86 0 -177 -91l-77 79q113 123 259 123q102 0 165 -51.5t63 -133.5q0 -63 -36 -115t-123 -114l-260 -188h327l-29 -108h-514z" />
    <glyph glyph-name="three" unicode="3" horiz-adv-x="605" 
d="M244 -12q-179 0 -253 134l93 66q59 -89 166 -89q67 0 112 35t45 86q0 48 -41 73t-114 25h-38l-8 75l238 200h-298l29 107h466l-25 -92l-250 -204q76 -13 121 -56t45 -117q0 -104 -83.5 -173.5t-204.5 -69.5z" />
    <glyph glyph-name="four" unicode="4" horiz-adv-x="655" 
d="M331 0l42 157h-340l-13 91l498 457h119l-120 -447h100l-27 -101h-100l-42 -157h-117zM177 258h223l75 279z" />
    <glyph glyph-name="five" unicode="5" horiz-adv-x="607" 
d="M251 -11q-78 0 -147 35.5t-105 89.5l88 71q72 -86 174 -86q72 0 119.5 40t47.5 96q0 48 -37.5 78t-104.5 30q-54 0 -114 -29l-64 52l109 334h411l-31 -109h-299l-53 -161q44 16 90 16q98 0 159 -54.5t61 -144.5q0 -106 -85 -182t-219 -76z" />
    <glyph glyph-name="six" unicode="6" horiz-adv-x="642" 
d="M314 -12q-113 0 -177 64q-71 71 -71 196q0 105 36.5 200.5t101.5 160.5q105 103 245 103q129 0 212 -85l-73 -87q-64 61 -149 61q-87 0 -149 -63q-69 -69 -87 -166q27 32 75 54.5t103 22.5q94 0 155 -54.5t61 -143.5q0 -105 -82.5 -184t-200.5 -79zM315 93q68 0 112.5 43
t44.5 101q0 48 -33.5 79.5t-91.5 31.5q-71 0 -116 -41.5t-45 -98.5q0 -48 32 -80q37 -35 97 -35z" />
    <glyph glyph-name="seven" unicode="7" horiz-adv-x="600" 
d="M30 0l446 592h-346l29 108h492l-26 -93l-450 -607h-145z" />
    <glyph glyph-name="eight" unicode="8" horiz-adv-x="656" 
d="M298 -10q-112 0 -188 54.5t-76 138.5q0 78 52 127t138 67q-42 19 -67 56t-25 83q0 77 71 135.5t188 58.5q107 0 175 -52t68 -133q0 -67 -44 -114t-117 -63q50 -19 81 -58.5t31 -93.5q0 -85 -80 -145.5t-207 -60.5zM377 405q53 0 96.5 28.5t43.5 79.5q0 41 -35.5 68
t-95.5 27q-59 0 -98.5 -30.5t-39.5 -76.5q0 -41 36 -68.5t93 -27.5zM305 91q69 0 114 31t45 80q0 44 -41.5 74t-108.5 30q-71 0 -114.5 -32.5t-43.5 -80.5q0 -45 41.5 -73.5t107.5 -28.5z" />
    <glyph glyph-name="nine" unicode="9" horiz-adv-x="642" 
d="M243 -12q-129 0 -224 92l74 87q76 -69 156 -69q83 0 148.5 63.5t86.5 159.5q-28 -32 -75 -55t-103 -23q-95 0 -155.5 55t-60.5 146q0 111 82.5 189.5t201.5 78.5q114 0 181 -67t67 -203q0 -117 -48 -221t-136 -168.5t-195 -64.5zM343 345q69 0 114 43t45 102
q0 53 -36.5 85t-92.5 32q-69 0 -113.5 -43.5t-44.5 -105.5q0 -50 34.5 -81.5t93.5 -31.5z" />
    <glyph glyph-name="colon" unicode=":" horiz-adv-x="296" 
d="M116 391l37 137h133l-37 -137h-133zM11 0l37 137h133l-37 -137h-133z" />
    <glyph glyph-name="semicolon" unicode=";" horiz-adv-x="296" 
d="M116 391l37 137h133l-37 -137h-133zM-44 -145l-9 51q101 14 115 94h-51l37 137h133l-31 -116q-23 -84 -69 -122t-125 -44z" />
    <glyph glyph-name="less" unicode="&#x3c;" horiz-adv-x="640" 
d="M493 77l-419 221l29 108l537 221l-33 -121l-400 -159l315 -160z" />
    <glyph glyph-name="equal" unicode="=" horiz-adv-x="640" 
d="M129 421l30 112h468l-30 -112h-468zM62 171l30 112h468l-30 -112h-468z" />
    <glyph glyph-name="greater" unicode="&#x3e;" horiz-adv-x="640" 
d="M38 77l33 121l400 159l-315 160l29 110l419 -221l-29 -108z" />
    <glyph glyph-name="question" unicode="?" horiz-adv-x="541" 
d="M182 221l23 162l6 5q102 8 158.5 40.5t56.5 86.5q0 39 -27 60.5t-76 21.5q-86 0 -159 -68l-66 81q97 99 241 99q98 0 157 -52t59 -128q0 -90 -68 -146.5t-191 -74.5l-33 -87h-81zM99 0l37 137h133l-37 -137h-133z" />
    <glyph glyph-name="at" unicode="@" horiz-adv-x="980" 
d="M476 -157q-186 0 -302 108.5t-116 280.5q0 95 38.5 184t103.5 154t156 104.5t191 39.5q182 0 291 -100.5t109 -246.5q0 -143 -68 -221.5t-159 -78.5q-51 0 -86 22.5t-48 61.5q-76 -85 -168 -85q-68 0 -114 45t-46 123q0 114 76.5 193.5t172.5 79.5t138 -82l22 73l92 -25
l-78 -247q-8 -27 -8 -46q0 -33 18.5 -51t51.5 -18q60 0 112 69.5t52 186.5q0 131 -98.5 220.5t-261.5 89.5q-123 0 -227 -61.5t-163 -164t-59 -219.5q0 -156 105 -254t273 -98q104 0 205 45l16 -33q-105 -49 -221 -49zM456 151q60 0 109.5 52.5t49.5 120.5q0 44 -27.5 70.5
t-72.5 26.5q-59 0 -105 -51.5t-46 -122.5q0 -45 25 -70.5t67 -25.5z" />
    <glyph glyph-name="A" unicode="A" horiz-adv-x="763" 
d="M-50 0l497 705h118l119 -705h-126l-27 169h-331l-117 -169h-133zM275 278h241l-45 283z" />
    <glyph glyph-name="B" unicode="B" horiz-adv-x="717" 
d="M19 0l188 700h268q111 0 170 -46.5t59 -121.5q0 -70 -44 -116t-116 -62q108 -42 108 -143q0 -95 -79 -153t-219 -58h-335zM248 405h174q74 0 116 28t42 79q0 79 -116 79h-166zM169 109h202q74 0 116.5 29t42.5 80q0 39 -33 61t-90 22h-187z" />
    <glyph glyph-name="C" unicode="C" horiz-adv-x="730" 
d="M391 -12q-138 0 -227 81t-89 217q0 111 56.5 209t154.5 157.5t212 59.5q187 0 273 -150l-102 -69q-34 52 -77 79t-108 27q-112 0 -196.5 -92.5t-84.5 -215.5q0 -86 53 -138t137 -52q55 0 97.5 20t88.5 60l81 -82q-114 -111 -269 -111z" />
    <glyph glyph-name="D" unicode="D" horiz-adv-x="775" 
d="M19 0l188 700h190q182 0 273 -91q77 -76 77 -204q0 -161 -113 -274q-131 -131 -364 -131h-251zM172 112h113q161 0 256 95q78 78 78 193q0 80 -49 129q-59 59 -182 59h-87z" />
    <glyph glyph-name="E" unicode="E" horiz-adv-x="660" 
d="M19 0l188 700h514l-30 -110h-391l-49 -183h347l-30 -109h-347l-50 -188h397l-30 -110h-519z" />
    <glyph glyph-name="F" unicode="F" horiz-adv-x="661" 
d="M19 0l188 700h521l-30 -112h-398l-51 -191h353l-30 -112h-353l-76 -285h-124z" />
    <glyph glyph-name="G" unicode="G" horiz-adv-x="782" 
d="M395 -12q-132 0 -226.5 79.5t-94.5 221.5q0 108 55.5 205t156.5 157.5t222 60.5q187 0 277 -124l-92 -78q-74 89 -194 89q-124 0 -210 -92t-86 -214q0 -90 56 -141.5t144 -51.5q80 0 148 36l43 148h-179l29 107h298l-95 -335q-115 -68 -252 -68z" />
    <glyph glyph-name="H" unicode="H" horiz-adv-x="756" 
d="M19 0l188 700h124l-78 -291h329l78 291h123l-188 -700h-123l79 295h-329l-79 -295h-124z" />
    <glyph glyph-name="I" unicode="I" horiz-adv-x="317" 
d="M26 0l188 700h124l-188 -700h-124z" />
    <glyph glyph-name="J" unicode="J" horiz-adv-x="564" 
d="M190 -10q-72 0 -129 34.5t-90 95.5l90 71q52 -87 134 -87q39 0 68.5 15t48.5 45t30.5 58.5t22.5 70.5l109 407h127l-117 -435q-40 -149 -109 -212t-185 -63z" />
    <glyph glyph-name="K" unicode="K" horiz-adv-x="723" 
d="M19 0l188 700h124l-95 -354l410 354h169l-356 -299l179 -401h-136l-141 328l-169 -142l-49 -186h-124z" />
    <glyph glyph-name="L" unicode="L" horiz-adv-x="618" 
d="M19 0l188 700h124l-158 -588h368l-31 -112h-491z" />
    <glyph glyph-name="M" unicode="M" horiz-adv-x="868" 
d="M19 0l188 700h125l122 -331l300 331h141l-188 -700h-125l135 502l-308 -330h-4l-129 328l-134 -500h-123z" />
    <glyph glyph-name="N" unicode="N" horiz-adv-x="786" 
d="M19 0l188 700h114l237 -495l134 495h121l-188 -700h-103l-245 509l-136 -509h-122z" />
    <glyph glyph-name="O" unicode="O" horiz-adv-x="836" 
d="M390 -12q-139 0 -226.5 87.5t-87.5 219.5q0 106 52.5 201.5t149 155.5t213.5 60q139 0 227 -87.5t88 -219.5q0 -106 -52.5 -201.5t-149.5 -155.5t-214 -60zM403 101q78 0 142.5 44.5t98.5 112.5t34 140q0 88 -53.5 144.5t-145.5 56.5q-78 0 -142.5 -44.5t-98.5 -112.5
t-34 -140q0 -89 53.5 -145t145.5 -56z" />
    <glyph glyph-name="P" unicode="P" horiz-adv-x="674" 
d="M19 0l188 700h221q122 0 193 -52t71 -155q0 -124 -95 -195t-247 -71h-146l-61 -227h-124zM233 336h123q97 0 152.5 39t55.5 108q0 50 -36.5 77.5t-103.5 27.5h-124z" />
    <glyph glyph-name="Q" unicode="Q" horiz-adv-x="836" 
d="M640 -38l-54 77q-91 -51 -196 -51q-139 0 -226.5 87.5t-87.5 219.5q0 106 52.5 201.5t149 155.5t213.5 60q139 0 227 -87.5t88 -219.5q0 -83 -33.5 -161t-93.5 -137l61 -77zM403 101q63 0 119 32l-99 124l101 69l84 -120q70 86 70 192q0 88 -53.5 144.5t-145.5 56.5
q-78 0 -142.5 -44.5t-98.5 -112.5t-34 -140q0 -89 53.5 -145t145.5 -56z" />
    <glyph glyph-name="R" unicode="R" horiz-adv-x="723" 
d="M19 0l188 700h254q126 0 194.5 -52.5t68.5 -147.5q0 -97 -63.5 -160t-175.5 -84l130 -256h-141l-120 244h-146l-65 -244h-124zM237 353h159q92 0 146 37t54 100q0 98 -142 98h-153z" />
    <glyph glyph-name="S" unicode="S" horiz-adv-x="637" 
d="M296 -10q-198 0 -297 131l93 77q87 -99 211 -99q59 0 97 27t38 70q0 32 -27.5 54.5t-101.5 51.5q-90 36 -135 78t-45 110q0 97 77 158.5t192 61.5q162 0 257 -105l-86 -84q-82 80 -180 80q-59 0 -94.5 -27.5t-35.5 -64.5q0 -33 28.5 -54.5t107.5 -52.5
q87 -34 130.5 -76.5t43.5 -111.5q0 -100 -79.5 -162t-193.5 -62z" />
    <glyph glyph-name="T" unicode="T" horiz-adv-x="618" 
d="M174 0l158 586h-223l31 114h568l-31 -114h-222l-158 -586h-123z" />
    <glyph glyph-name="U" unicode="U" horiz-adv-x="762" 
d="M345 -11q-122 0 -190.5 62t-68.5 169q0 50 16 111l98 369h123l-103 -386q-10 -38 -10 -77q0 -61 38 -98t109 -37q155 0 208 200l107 398h123l-112 -417q-80 -294 -338 -294z" />
    <glyph glyph-name="V" unicode="V" horiz-adv-x="721" 
d="M229 -5l-99 705h132l63 -535l351 535h139l-477 -705h-109z" />
    <glyph glyph-name="W" unicode="W" horiz-adv-x="1098" 
d="M191 -5l-55 705h128l29 -519l309 521h104l34 -521l306 519h140l-433 -705h-113l-36 497l-302 -497h-111z" />
    <glyph glyph-name="X" unicode="X" horiz-adv-x="698" 
d="M-43 0l347 363l-161 337h138l112 -250l230 250h158l-336 -352l166 -348h-138l-118 261l-240 -261h-158z" />
    <glyph glyph-name="Y" unicode="Y" horiz-adv-x="655" 
d="M189 0l74 278l-156 422h136l106 -316l277 316h152l-395 -435l-71 -265h-123z" />
    <glyph glyph-name="Z" unicode="Z" horiz-adv-x="681" 
d="M-19 0l24 91l535 500h-387l30 109h557l-25 -91l-535 -500h404l-29 -109h-574z" />
    <glyph glyph-name="bracketleft" unicode="[" horiz-adv-x="454" 
d="M-2 -130l223 830h308l-26 -95h-192l-172 -640h192l-25 -95h-308z" />
    <glyph glyph-name="backslash" unicode="\" horiz-adv-x="521" 
d="M339 -128l-212 926h101l212 -926h-101z" />
    <glyph glyph-name="bracketright" unicode="]" horiz-adv-x="454" 
d="M-64 -130l26 95h192l172 640h-192l25 95h308l-223 -830h-308z" />
    <glyph glyph-name="asciicircum" unicode="^" 
d="M98 493l207 208h85l96 -208h-84l-67 132l-137 -132h-100z" />
    <glyph glyph-name="underscore" unicode="_" horiz-adv-x="600" 
d="M-115 -160l26 94h604l-25 -94h-605z" />
    <glyph glyph-name="grave" unicode="`" 
d="M353 595l-91 115l113 49l61 -164h-83z" />
    <glyph glyph-name="a" unicode="a" horiz-adv-x="583" 
d="M174 -11q-69 0 -115 40t-46 105q0 89 65 139.5t170 50.5q82 0 158 -26l3 11q6 24 6 42q0 78 -115 78q-73 0 -145 -29l-20 100q88 36 189 36q103 0 157.5 -43t54.5 -121q0 -34 -11 -75l-79 -297h-119l18 69q-75 -80 -171 -80zM221 78q55 0 101 37t59 87l6 23
q-66 20 -120 20q-60 0 -95 -26.5t-35 -68.5q0 -34 22.5 -53t61.5 -19z" />
    <glyph glyph-name="b" unicode="b" horiz-adv-x="668" 
d="M329 -11q-121 0 -178 105l-25 -94h-121l195 730h121l-73 -272q81 81 169 81q90 0 148 -61.5t58 -164.5q0 -137 -88.5 -230.5t-205.5 -93.5zM315 92q74 0 128 62.5t54 149.5q0 60 -34 95.5t-91 35.5q-74 0 -132 -63t-58 -146q0 -58 37 -96t96 -38z" />
    <glyph glyph-name="c" unicode="c" horiz-adv-x="561" 
d="M286 -12q-104 0 -173 64.5t-69 170.5q0 129 93 222.5t219 93.5q146 0 214 -120l-94 -64q-24 38 -53.5 58.5t-76.5 20.5q-72 0 -126.5 -63t-54.5 -147q0 -60 36 -96t89 -36q68 0 135 59l64 -79q-92 -84 -203 -84z" />
    <glyph glyph-name="d" unicode="d" horiz-adv-x="668" 
d="M250 -11q-90 0 -148 61.5t-58 164.5q0 137 88.5 230.5t205.5 93.5q121 0 178 -105l79 296h121l-195 -730h-121l19 70q-81 -81 -169 -81zM296 92q73 0 131.5 63.5t58.5 146.5q0 58 -37.5 95.5t-96.5 37.5q-74 0 -128 -62t-54 -150q0 -60 34.5 -95.5t91.5 -35.5z" />
    <glyph glyph-name="e" unicode="e" horiz-adv-x="600" 
d="M159 220q1 -61 36.5 -97t100.5 -36q68 0 135 51l58 -77q-89 -73 -205 -73q-110 0 -175 62.5t-65 168.5q0 79 38.5 152t111.5 120.5t161 47.5q98 0 154.5 -58t56.5 -147q0 -52 -23 -114h-384zM172 303h274q5 13 5 36q0 44 -26.5 72.5t-78.5 28.5q-60 0 -106.5 -38
t-67.5 -99z" />
    <glyph glyph-name="f" unicode="f" horiz-adv-x="396" 
d="M33 0l114 424h-67l28 104h67l10 43q38 164 201 164q61 0 104 -18l-27 -101q-38 16 -74 16q-67 0 -87 -74l-8 -30h146l-28 -104h-144l-114 -424h-121z" />
    <glyph glyph-name="g" unicode="g" horiz-adv-x="666" 
d="M246 -162q-163 0 -271 81l67 84q89 -67 197 -67q82 0 129 47q35 35 55 107l9 32q-86 -80 -181 -80q-83 0 -143 51.5t-60 139.5q0 128 89 217t203 89q68 0 108 -29t66 -77l25 95h121l-116 -436q-19 -71 -39 -110.5t-51 -69.5q-74 -74 -208 -74zM296 141q73 0 128.5 53.5
t55.5 123.5q0 51 -35 84.5t-93 33.5q-72 0 -125 -53.5t-53 -128.5q0 -54 34.5 -83.5t87.5 -29.5z" />
    <glyph glyph-name="h" unicode="h" horiz-adv-x="618" 
d="M5 0l195 730h121l-72 -270q79 79 160 79q74 0 117.5 -42.5t43.5 -115.5q0 -31 -16 -93l-76 -288h-121l78 293q8 27 8 53q0 40 -24 61.5t-68 21.5q-50 0 -89.5 -36.5t-55.5 -95.5l-80 -297h-121z" />
    <glyph glyph-name="i" unicode="i" horiz-adv-x="286" 
d="M171 609l31 115h131l-32 -115h-130zM12 0l142 528h121l-142 -528h-121z" />
    <glyph glyph-name="j" unicode="j" horiz-adv-x="285" 
d="M171 609l31 115h130l-31 -115h-130zM-48 -163q-41 0 -77 9l26 96q26 -6 40 -6q55 0 73 72l140 520h121l-144 -535q-42 -156 -179 -156z" />
    <glyph glyph-name="k" unicode="k" horiz-adv-x="582" 
d="M5 0l196 730h121l-114 -427l270 225h160l-266 -215l127 -313h-136l-94 235l-102 -82l-41 -153h-121z" />
    <glyph glyph-name="l" unicode="l" horiz-adv-x="286" 
d="M12 0l196 730h121l-196 -730h-121z" />
    <glyph glyph-name="m" unicode="m" horiz-adv-x="950" 
d="M5 0l141 528h121l-18 -68q77 79 155 79q56 0 93 -29t51 -77q77 106 198 106q71 0 114 -43t43 -115q0 -27 -17 -93l-77 -288h-121l79 293q7 30 7 53q0 40 -22.5 61.5t-63.5 21.5q-49 0 -86.5 -36.5t-53.5 -95.5l-80 -297h-121l79 293q7 30 7 53q0 40 -22.5 61.5
t-63.5 21.5q-49 0 -87 -36t-54 -96l-80 -297h-121z" />
    <glyph glyph-name="n" unicode="n" horiz-adv-x="617" 
d="M5 0l141 528h121l-18 -68q79 79 160 79q74 0 117.5 -42.5t43.5 -115.5q0 -31 -16 -93l-76 -288h-121l78 293q8 27 8 53q0 40 -24 61.5t-68 21.5q-50 0 -89.5 -36.5t-55.5 -95.5l-80 -297h-121z" />
    <glyph glyph-name="o" unicode="o" horiz-adv-x="646" 
d="M293 -12q-112 0 -180 67.5t-68 173.5q0 122 91 216t217 94q112 0 180 -68t68 -174q0 -122 -91.5 -215.5t-216.5 -93.5zM300 93q74 0 127.5 63t53.5 138q0 66 -37 103t-98 37q-75 0 -128 -63.5t-53 -137.5q0 -66 37 -103t98 -37z" />
    <glyph glyph-name="p" unicode="p" horiz-adv-x="668" 
d="M-38 -160l184 688h121l-19 -70q81 81 169 81q90 0 148 -61.5t58 -164.5q0 -137 -88.5 -230.5t-205.5 -93.5q-121 0 -178 105l-68 -254h-121zM315 92q74 0 128 62.5t54 149.5q0 60 -34 95.5t-91 35.5q-74 0 -132 -63t-58 -146q0 -58 37 -96t96 -38z" />
    <glyph glyph-name="q" unicode="q" horiz-adv-x="668" 
d="M347 -200l72 271q-79 -82 -169 -82t-148 61.5t-58 164.5q0 137 88.5 230.5t205.5 93.5q122 0 178 -104l25 93h121l-194 -728h-121zM296 92q73 0 131.5 63.5t58.5 146.5q0 59 -37.5 96t-96.5 37q-74 0 -128 -62t-54 -150q0 -60 34.5 -95.5t91.5 -35.5z" />
    <glyph glyph-name="r" unicode="r" horiz-adv-x="412" 
d="M5 0l141 528h121l-31 -119q95 137 221 129l-34 -128h-7q-83 0 -146 -54t-91 -160l-53 -196h-121z" />
    <glyph glyph-name="s" unicode="s" horiz-adv-x="498" 
d="M217 -12q-63 0 -126 24.5t-107 70.5l72 74q74 -74 170 -74q37 0 61 17t24 46q0 19 -18 34t-59 32q-78 32 -115 63.5t-37 87.5q0 76 56.5 125.5t150.5 49.5q58 0 112.5 -21.5t90.5 -52.5l-67 -78q-73 58 -145 58q-38 0 -59.5 -17t-21.5 -43q0 -20 19 -35t65 -34
q71 -30 108 -62.5t37 -85.5q0 -80 -59.5 -129.5t-151.5 -49.5z" />
    <glyph glyph-name="t" unicode="t" horiz-adv-x="409" 
d="M196 -9q-63 0 -97.5 28t-34.5 76q0 25 9 61l71 268h-67l28 104h67l39 145h121l-39 -145h141l-28 -104h-141l-68 -255q-4 -13 -4 -30q0 -41 53 -41q37 0 77 17l-28 -105q-42 -19 -99 -19z" />
    <glyph glyph-name="u" unicode="u" horiz-adv-x="618" 
d="M209 -11q-74 0 -117.5 42.5t-43.5 115.5q0 31 16 93l77 288h121l-79 -293q-7 -28 -7 -53q0 -40 23.5 -61.5t67.5 -21.5q50 0 89.5 36.5t55.5 95.5l80 297h121l-141 -528h-121l18 68q-79 -79 -160 -79z" />
    <glyph glyph-name="v" unicode="v" horiz-adv-x="581" 
d="M159 -4l-73 532h125l38 -386l243 386h132l-356 -532h-109z" />
    <glyph glyph-name="w" unicode="w" horiz-adv-x="853" 
d="M121 -4l-29 532h123l10 -361l214 363h103l20 -363l206 361h122l-316 -532h-109l-21 361l-216 -361h-107z" />
    <glyph glyph-name="x" unicode="x" horiz-adv-x="572" 
d="M-44 0l269 275l-122 253h130l75 -169l156 169h146l-256 -265l125 -263h-130l-79 180l-167 -180h-147z" />
    <glyph glyph-name="y" unicode="y" horiz-adv-x="585" 
d="M65 -163q-67 0 -119 36l64 89q32 -23 68 -23q46 0 90 59l-77 530h124l44 -391l233 391h132l-341 -543q-51 -80 -101.5 -114t-116.5 -34z" />
    <glyph glyph-name="z" unicode="z" horiz-adv-x="554" 
d="M-24 0l23 83l388 346h-285l26 99h445l-22 -83l-389 -346h299l-27 -99h-458z" />
    <glyph glyph-name="braceleft" unicode="{" horiz-adv-x="487" 
d="M309 -141q-94 19 -135.5 58t-41.5 99q0 34 21 96q13 41 13 67q0 32 -17 47t-68 15h-31l25 92h30q74 0 104.5 33t45.5 130q16 111 80 163t199 56l6 -82q-95 -8 -131.5 -44.5t-47.5 -119.5q-13 -101 -49.5 -141.5t-110.5 -49.5q39 -7 60 -30t21 -57q0 -21 -16 -71
q-18 -52 -18 -84q0 -37 21.5 -60t78.5 -43z" />
    <glyph glyph-name="bar" unicode="|" horiz-adv-x="331" 
d="M135 -128v926h97v-926h-97z" />
    <glyph glyph-name="braceright" unicode="}" horiz-adv-x="487" 
d="M-35 -141l-6 82q95 8 131.5 44.5t47.5 119.5q14 101 50 141.5t110 49.5q-80 15 -80 87q0 30 15 71q18 56 18 84q0 37 -21.5 60t-78.5 43l39 74q94 -19 135.5 -58t41.5 -99q0 -37 -20 -96q-14 -39 -14 -67q0 -32 17 -47t69 -15h30l-25 -92h-30q-74 0 -105 -33t-45 -130
q-17 -111 -80.5 -163t-198.5 -56z" />
    <glyph glyph-name="asciitilde" unicode="~" horiz-adv-x="495" 
d="M132 228l-67 32q56 122 138 122q37 0 75 -31q34 -27 52 -27q20 0 34.5 14.5t31.5 44.5l68 -32q-56 -122 -138 -122q-37 0 -76 31q-36 27 -51 27q-33 0 -67 -59z" />
    <glyph glyph-name="uni00A0" unicode="&#xa0;" horiz-adv-x="300" 
 />
    <glyph glyph-name="exclamdown" unicode="&#xa1;" horiz-adv-x="303" 
d="M165 563l37 137h133l-37 -137h-133zM9 0l10 35l156 444h67l-81 -444l-10 -35h-142z" />
    <glyph glyph-name="cent" unicode="&#xa2;" horiz-adv-x="578" 
d="M203 104q-63 29 -98.5 85t-35.5 130q0 131 90.5 221t222.5 90q18 0 26 -1l30 77h88l-37 -94q79 -30 119 -103l-92 -63q-29 47 -71 66l-128 -328h8q76 0 145 56l65 -81q-87 -80 -207 -80q-25 0 -46 3l-35 -88h-88zM371 525q-77 -4 -129.5 -64.5t-52.5 -139.5
q0 -76 58 -114z" />
    <glyph glyph-name="sterling" unicode="&#xa3;" horiz-adv-x="638" 
d="M-10 0l21 78l86 24l47 176h-79l28 104h79l28 105q26 98 80 152q70 70 180 70q141 0 205 -117l-99 -66q-22 35 -48.5 52.5t-66.5 17.5q-49 0 -84 -35q-32 -32 -49 -95l-24 -84h251l-27 -104h-251l-46 -171h327l-29 -107h-529z" />
    <glyph glyph-name="currency" unicode="&#xa4;" horiz-adv-x="709" 
d="M389 -12q-110 0 -181.5 64t-81.5 173h-98l23 85h76q5 47 16 85h-70l23 85h73q45 105 130 168.5t196 63.5q186 0 243 -162l-105 -51q-24 52 -57 77t-89 25q-117 0 -181 -121h225l-23 -85h-234q-14 -38 -19 -85h231l-23 -85h-209q8 -59 44.5 -92.5t92.5 -33.5q48 0 84.5 19
t74.5 60l83 -72q-99 -118 -244 -118z" />
    <glyph glyph-name="yen" unicode="&#xa5;" horiz-adv-x="708" 
d="M222 0l27 102h-192l24 89h192l19 73h-192l24 89h157l-138 347h133l108 -294l266 294h149l-328 -347h157l-24 -89h-193l-19 -73h193l-24 -89h-193l-27 -102h-119z" />
    <glyph glyph-name="brokenbar" unicode="&#xa6;" horiz-adv-x="222" 
d="M164 411h-106v250h106v-250zM164 -89h-106v250h106v-250z" />
    <glyph glyph-name="section" unicode="&#xa7;" horiz-adv-x="632" 
d="M285 -9q-73 0 -134 24t-97 65l76 70q68 -66 162 -66q38 0 62 14t24 36q0 20 -24.5 35t-88.5 34q-96 29 -142 59.5t-46 84.5q0 52 40.5 86t113.5 44q-48 36 -48 87q0 65 60 106t150 41q73 0 134 -24t97 -65l-76 -70q-68 66 -162 66q-38 0 -62 -14t-24 -36
q0 -21 24.5 -35.5t88.5 -33.5q95 -28 141.5 -59t46.5 -85q0 -51 -40.5 -85.5t-113.5 -44.5q48 -36 48 -87q0 -65 -60 -106t-150 -41zM397 275q37 0 63 18t26 43q0 22 -23 37.5t-77 32.5q-64 21 -105 21q-37 0 -63 -18t-26 -43q0 -22 23 -37.5t77 -32.5q64 -21 105 -21z" />
    <glyph glyph-name="dieresis" unicode="&#xa8;" 
d="M373 595l32 118h123l-33 -118h-122zM174 595l32 118h123l-32 -118h-123z" />
    <glyph glyph-name="copyright" unicode="&#xa9;" horiz-adv-x="830" 
d="M436 -12q-151 0 -256 106t-105 255t106 256t257 107t256 -106t105 -255t-106 -256t-257 -107zM436 24q138 0 231.5 95.5t93.5 231.5t-93 230.5t-230 94.5q-138 0 -231 -95.5t-93 -231.5t92.5 -230.5t229.5 -94.5zM441 159q-82 0 -137 56.5t-55 138.5t55.5 139.5
t139.5 57.5q87 0 148 -59l-47 -54q-50 45 -102 45q-51 0 -84.5 -37t-33.5 -91q0 -53 34 -90.5t85 -37.5q53 0 103 47l48 -47q-65 -68 -154 -68z" />
    <glyph glyph-name="ordfeminine" unicode="&#xaa;" horiz-adv-x="390" 
d="M189 403q-38 0 -62 22t-24 56q0 49 36.5 78t91.5 29q41 0 88 -15l2 7q4 12 4 20q0 43 -64 43q-41 0 -78 -15l-12 56q50 20 105 20q57 0 87 -23.5t30 -66.5q0 -15 -6 -43l-44 -162h-69l11 39q-43 -45 -96 -45zM53 282l16 58h259l-16 -58h-259zM217 452q29 0 55 20.5
t34 49.5l2 10q-37 11 -65 11q-31 0 -50 -15t-19 -39q0 -16 12 -26.5t31 -10.5z" />
    <glyph glyph-name="guillemotleft" unicode="&#xab;" horiz-adv-x="605" 
d="M403 34l-107 220l2 8l231 226l71 -65l-181 -177l81 -167zM152 34l-106 220l2 8l230 226l72 -65l-181 -177l81 -167z" />
    <glyph glyph-name="logicalnot" unicode="&#xac;" horiz-adv-x="640" 
d="M539 244h-112l48 176h-361l30 110h472z" />
    <glyph glyph-name="uni00AD" unicode="&#xad;" horiz-adv-x="411" 
d="M53 247l32 119h296l-32 -119h-296z" />
    <glyph glyph-name="registered" unicode="&#xae;" horiz-adv-x="830" 
d="M436 -12q-151 0 -256 106t-105 255t106 256t257 107t256 -106t105 -255t-106 -256t-257 -107zM436 24q138 0 231.5 95.5t93.5 231.5t-93 230.5t-230 94.5q-138 0 -231 -95.5t-93 -231.5t92.5 -230.5t229.5 -94.5zM291 171v379h169q67 0 106.5 -32.5t39.5 -88.5
q0 -45 -23.5 -74t-64.5 -41l103 -143h-86l-93 131h-78v-131h-73zM364 365h93q35 0 55.5 16t20.5 44q0 29 -20 44.5t-56 15.5h-93v-120z" />
    <glyph glyph-name="macron" unicode="&#xaf;" 
d="M168 600l24 89h342l-24 -89h-342z" />
    <glyph glyph-name="degree" unicode="&#xb0;" horiz-adv-x="421" 
d="M238 377q-67 0 -108.5 41t-41.5 105q0 74 54 129.5t129 55.5q68 0 109.5 -41t41.5 -105q0 -73 -54.5 -129t-129.5 -56zM242 445q44 0 74 35t30 79q0 37 -21.5 59.5t-56.5 22.5q-43 0 -73.5 -35.5t-30.5 -78.5q0 -37 21.5 -59.5t56.5 -22.5z" />
    <glyph glyph-name="plusminus" unicode="&#xb1;" horiz-adv-x="640" 
d="M577 315h-196l-40 -154h-115l42 154h-196l29 108h195l42 155h114l-42 -155h196zM488 3h-493l27 102h493z" />
    <glyph glyph-name="twosuperior" unicode="&#xb2;" 
d="M0 0v700h500v-700h-500zM81 49h340l-171 255zM50 95l170 254l-170 256v-510zM451 95v510l-172 -256zM250 395l171 255h-340z" />
    <glyph glyph-name="threesuperior" unicode="&#xb3;" 
d="M0 0v700h500v-700h-500zM81 49h340l-171 255zM50 95l170 254l-170 256v-510zM451 95v510l-172 -256zM250 395l171 255h-340z" />
    <glyph glyph-name="acute" unicode="&#xb4;" 
d="M221 595l150 164l108 -49l-153 -115h-105z" />
    <glyph glyph-name="mu" unicode="&#xb5;" horiz-adv-x="633" 
d="M210 -7q-53 0 -76 46l-53 -199h-119l184 688h120l-80 -301q-7 -27 -7 -51q0 -79 86 -79q55 0 102.5 37t63.5 97l79 297h119l-140 -528h-120q15 60 22 81q-83 -88 -181 -88z" />
    <glyph glyph-name="paragraph" unicode="&#xb6;" horiz-adv-x="565" 
d="M281 0l60 227q-117 4 -183 54.5t-66 149.5q0 121 89 195t255 74h156l-188 -700h-123z" />
    <glyph glyph-name="periodcentered" unicode="&#xb7;" horiz-adv-x="293" 
d="M69 238l37 137h134l-37 -137h-134z" />
    <glyph glyph-name="cedilla" unicode="&#xb8;" 
d="M145 -165l-93 44l124 131h91z" />
    <glyph glyph-name="onesuperior" unicode="&#xb9;" 
d="M0 0v700h500v-700h-500zM81 49h340l-171 255zM50 95l170 254l-170 256v-510zM451 95v510l-172 -256zM250 395l171 255h-340z" />
    <glyph glyph-name="ordmasculine" unicode="&#xba;" horiz-adv-x="398" 
d="M246 401q-63 0 -101 37.5t-38 96.5q0 68 49.5 119t119.5 51q62 0 100.5 -37.5t38.5 -96.5q0 -68 -49.5 -119t-119.5 -51zM54 282l15 58h275l-15 -58h-275zM249 462q41 0 68.5 32.5t27.5 73.5q0 34 -20 55t-52 21q-41 0 -68.5 -32.5t-27.5 -73.5q0 -34 20 -55t52 -21z" />
    <glyph glyph-name="guillemotright" unicode="&#xbb;" horiz-adv-x="605" 
d="M324 34l-71 64l181 178l-81 167l97 44l107 -219l-2 -8zM74 34l-71 64l180 178l-80 167l97 44l107 -219l-2 -8z" />
    <glyph glyph-name="onequarter" unicode="&#xbc;" 
d="M0 0v700h500v-700h-500zM81 49h340l-171 255zM50 95l170 254l-170 256v-510zM451 95v510l-172 -256zM250 395l171 255h-340z" />
    <glyph glyph-name="onehalf" unicode="&#xbd;" 
d="M0 0v700h500v-700h-500zM81 49h340l-171 255zM50 95l170 254l-170 256v-510zM451 95v510l-172 -256zM250 395l171 255h-340z" />
    <glyph glyph-name="threequarters" unicode="&#xbe;" 
d="M0 0v700h500v-700h-500zM81 49h340l-171 255zM50 95l170 254l-170 256v-510zM451 95v510l-172 -256zM250 395l171 255h-340z" />
    <glyph glyph-name="questiondown" unicode="&#xbf;" horiz-adv-x="541" 
d="M318 563l37 137h133l-37 -137h-133zM249 -9q-99 0 -158 52t-59 128q0 90 68 146.5t191 74.5l33 87h81l-23 -162l-6 -5q-102 -8 -158.5 -40.5t-56.5 -86.5q0 -39 27 -60.5t76 -21.5q86 0 159 68l66 -81q-97 -99 -240 -99z" />
    <glyph glyph-name="Agrave" unicode="&#xc0;" horiz-adv-x="763" 
d="M-50 0l497 705h118l119 -705h-126l-27 169h-331l-117 -169h-133zM275 278h241l-45 283zM479 758l-91 115l113 49l61 -164h-83z" />
    <glyph glyph-name="Aacute" unicode="&#xc1;" horiz-adv-x="763" 
d="M-50 0l497 705h118l119 -705h-126l-27 169h-331l-117 -169h-133zM275 278h241l-45 283zM445 758l150 164l108 -49l-153 -115h-105z" />
    <glyph glyph-name="Acircumflex" unicode="&#xc2;" horiz-adv-x="763" 
d="M-50 0l497 705h118l119 -705h-126l-27 169h-331l-117 -169h-133zM275 278h241l-45 283zM329 758l155 146h113l77 -146h-91l-58 67l-96 -67h-100z" />
    <glyph glyph-name="Atilde" unicode="&#xc3;" horiz-adv-x="763" 
d="M-50 0l497 705h118l119 -705h-126l-27 169h-331l-117 -169h-133zM275 278h241l-45 283zM387 753l-67 32q56 122 138 122q35 0 75 -31q34 -27 52 -27q20 0 34.5 14.5t31.5 44.5l68 -32q-56 -122 -139 -122q-37 0 -75 31q-36 27 -51 27q-33 0 -67 -59z" />
    <glyph glyph-name="Adieresis" unicode="&#xc4;" horiz-adv-x="763" 
d="M-50 0l497 705h118l119 -705h-126l-27 169h-331l-117 -169h-133zM275 278h241l-45 283zM553 758l32 118h123l-33 -118h-122zM354 758l32 118h123l-32 -118h-123z" />
    <glyph glyph-name="Aring" unicode="&#xc5;" horiz-adv-x="763" 
d="M-47 0l485 689q-32 27 -32 71q0 51 37 87.5t89 36.5q48 0 77 -28t29 -69q0 -35 -18 -63.5t-48 -43.5l115 -680h-126l-27 169h-331l-117 -169h-133zM514 710q29 0 48.5 23t19.5 53q0 22 -14 36t-37 14q-30 0 -49.5 -23t-19.5 -53q0 -22 14 -36t38 -14zM278 278h241
l-45 283z" />
    <glyph glyph-name="AE" unicode="&#xc6;" horiz-adv-x="1061" 
d="M-52 0l579 700h590l-30 -110h-374l-49 -183h330l-30 -109h-330l-50 -188h380l-30 -110h-502l46 169h-256l-139 -169h-135zM311 278h196l84 315h-21z" />
    <glyph glyph-name="Ccedilla" unicode="&#xc7;" horiz-adv-x="730" 
d="M384 -12l-107 -153l-93 44l114 120q-101 25 -162 100.5t-61 186.5t56.5 209t154.5 157.5t212 59.5q187 0 273 -150l-102 -69q-34 52 -77 79t-108 27q-112 0 -196.5 -92.5t-84.5 -215.5q0 -86 53 -138t137 -52q55 0 97.5 20t88.5 60l81 -82q-114 -111 -269 -111h-7z" />
    <glyph glyph-name="Egrave" unicode="&#xc8;" horiz-adv-x="660" 
d="M19 0l188 700h514l-30 -110h-391l-49 -183h347l-30 -109h-347l-50 -188h397l-30 -110h-519zM444 758l-91 115l113 49l61 -164h-83z" />
    <glyph glyph-name="Eacute" unicode="&#xc9;" horiz-adv-x="660" 
d="M19 0l188 700h514l-30 -110h-391l-49 -183h347l-30 -109h-347l-50 -188h397l-30 -110h-519zM393 758l150 164l108 -49l-153 -115h-105z" />
    <glyph glyph-name="Ecircumflex" unicode="&#xca;" horiz-adv-x="660" 
d="M19 0l188 700h514l-30 -110h-391l-49 -183h347l-30 -109h-347l-50 -188h397l-30 -110h-519zM302 758l155 146h113l77 -146h-91l-58 67l-96 -67h-100z" />
    <glyph glyph-name="Edieresis" unicode="&#xcb;" horiz-adv-x="660" 
d="M19 0l188 700h514l-30 -110h-391l-49 -183h347l-30 -109h-347l-50 -188h397l-30 -110h-519zM514 758l32 118h123l-33 -118h-122zM315 758l32 118h123l-32 -118h-123z" />
    <glyph glyph-name="Igrave" unicode="&#xcc;" horiz-adv-x="317" 
d="M26 0l188 700h124l-188 -700h-124zM259 758l-91 115l113 49l61 -164h-83z" />
    <glyph glyph-name="Iacute" unicode="&#xcd;" horiz-adv-x="317" 
d="M26 0l188 700h124l-188 -700h-124zM217 758l150 164l108 -49l-153 -115h-105z" />
    <glyph glyph-name="Icircumflex" unicode="&#xce;" horiz-adv-x="317" 
d="M26 0l188 700h124l-188 -700h-124zM109 758l155 146h113l77 -146h-91l-58 67l-96 -67h-100z" />
    <glyph glyph-name="Idieresis" unicode="&#xcf;" horiz-adv-x="317" 
d="M26 0l188 700h124l-188 -700h-124zM329 758l32 118h123l-33 -118h-122zM130 758l32 118h123l-32 -118h-123z" />
    <glyph glyph-name="Eth" unicode="&#xd0;" horiz-adv-x="798" 
d="M42 0l80 297h-81l30 110h81l78 293h190q182 0 273 -91q77 -76 77 -204q0 -161 -113 -274q-131 -131 -364 -131h-251zM195 112h113q161 0 256 95q78 78 78 193q0 80 -49 129q-59 59 -182 59h-87l-49 -181h169l-30 -110h-169z" />
    <glyph glyph-name="Ntilde" unicode="&#xd1;" horiz-adv-x="786" 
d="M19 0l188 700h114l237 -495l134 495h121l-188 -700h-103l-245 509l-136 -509h-122zM393 753l-67 32q56 122 138 122q35 0 75 -31q34 -27 52 -27q20 0 34.5 14.5t31.5 44.5l68 -32q-56 -122 -139 -122q-37 0 -75 31q-36 27 -51 27q-33 0 -67 -59z" />
    <glyph glyph-name="Ograve" unicode="&#xd2;" horiz-adv-x="836" 
d="M390 -12q-139 0 -226.5 87.5t-87.5 219.5q0 106 52.5 201.5t149 155.5t213.5 60q139 0 227 -87.5t88 -219.5q0 -106 -52.5 -201.5t-149.5 -155.5t-214 -60zM403 101q78 0 142.5 44.5t98.5 112.5t34 140q0 88 -53.5 144.5t-145.5 56.5q-78 0 -142.5 -44.5t-98.5 -112.5
t-34 -140q0 -89 53.5 -145t145.5 -56zM495 758l-91 115l113 49l61 -164h-83z" />
    <glyph glyph-name="Oacute" unicode="&#xd3;" horiz-adv-x="836" 
d="M390 -12q-139 0 -226.5 87.5t-87.5 219.5q0 106 52.5 201.5t149 155.5t213.5 60q139 0 227 -87.5t88 -219.5q0 -106 -52.5 -201.5t-149.5 -155.5t-214 -60zM403 101q78 0 142.5 44.5t98.5 112.5t34 140q0 88 -53.5 144.5t-145.5 56.5q-78 0 -142.5 -44.5t-98.5 -112.5
t-34 -140q0 -89 53.5 -145t145.5 -56zM431 758l150 164l108 -49l-153 -115h-105z" />
    <glyph glyph-name="Ocircumflex" unicode="&#xd4;" horiz-adv-x="836" 
d="M390 -12q-139 0 -226.5 87.5t-87.5 219.5q0 106 52.5 201.5t149 155.5t213.5 60q139 0 227 -87.5t88 -219.5q0 -106 -52.5 -201.5t-149.5 -155.5t-214 -60zM403 101q78 0 142.5 44.5t98.5 112.5t34 140q0 88 -53.5 144.5t-145.5 56.5q-78 0 -142.5 -44.5t-98.5 -112.5
t-34 -140q0 -89 53.5 -145t145.5 -56zM350 758l155 146h113l77 -146h-91l-58 67l-96 -67h-100z" />
    <glyph glyph-name="Otilde" unicode="&#xd5;" horiz-adv-x="836" 
d="M390 -12q-139 0 -226.5 87.5t-87.5 219.5q0 106 52.5 201.5t149 155.5t213.5 60q139 0 227 -87.5t88 -219.5q0 -106 -52.5 -201.5t-149.5 -155.5t-214 -60zM403 101q78 0 142.5 44.5t98.5 112.5t34 140q0 88 -53.5 144.5t-145.5 56.5q-78 0 -142.5 -44.5t-98.5 -112.5
t-34 -140q0 -89 53.5 -145t145.5 -56zM405 753l-67 32q56 122 138 122q35 0 75 -31q34 -27 52 -27q20 0 34.5 14.5t31.5 44.5l68 -32q-56 -122 -139 -122q-37 0 -75 31q-36 27 -51 27q-33 0 -67 -59z" />
    <glyph glyph-name="Odieresis" unicode="&#xd6;" horiz-adv-x="836" 
d="M390 -12q-139 0 -226.5 87.5t-87.5 219.5q0 106 52.5 201.5t149 155.5t213.5 60q139 0 227 -87.5t88 -219.5q0 -106 -52.5 -201.5t-149.5 -155.5t-214 -60zM403 101q78 0 142.5 44.5t98.5 112.5t34 140q0 88 -53.5 144.5t-145.5 56.5q-78 0 -142.5 -44.5t-98.5 -112.5
t-34 -140q0 -89 53.5 -145t145.5 -56zM565 758l32 118h123l-33 -118h-122zM366 758l32 118h123l-32 -118h-123z" />
    <glyph glyph-name="multiply" unicode="&#xd7;" horiz-adv-x="640" 
d="M587 134l-73 -74q-14 13 -89.5 89t-88.5 90l-176 -179l-73 74q161 161 178 177l-178 178l36 36l37 37q13 -13 88 -89t88 -90q146 146 178 179l37 -37l36 -36l-178 -178q33 -32 178 -177z" />
    <glyph glyph-name="Oslash" unicode="&#xd8;" horiz-adv-x="836" 
d="M390 -12q-126 0 -212 75l-78 -68h-123l146 130q-47 74 -47 170q0 106 52.5 201.5t149 155.5t213.5 60q130 0 216 -78l80 71h123l-149 -134q45 -73 45 -166q0 -106 -52.5 -201.5t-149.5 -155.5t-214 -60zM219 206l396 350q-53 47 -136 47q-118 0 -198.5 -93.5
t-80.5 -208.5q0 -54 19 -95zM402 96q79 0 144.5 45.5t100.5 114.5t35 142q0 52 -18 92l-393 -349q51 -45 131 -45z" />
    <glyph glyph-name="Ugrave" unicode="&#xd9;" horiz-adv-x="762" 
d="M345 -11q-122 0 -190.5 62t-68.5 169q0 50 16 111l98 369h123l-103 -386q-10 -38 -10 -77q0 -61 38 -98t109 -37q155 0 208 200l107 398h123l-112 -417q-80 -294 -338 -294zM476 758l-91 115l113 49l61 -164h-83z" />
    <glyph glyph-name="Uacute" unicode="&#xda;" horiz-adv-x="762" 
d="M345 -11q-122 0 -190.5 62t-68.5 169q0 50 16 111l98 369h123l-103 -386q-10 -38 -10 -77q0 -61 38 -98t109 -37q155 0 208 200l107 398h123l-112 -417q-80 -294 -338 -294zM424 758l150 164l108 -49l-153 -115h-105z" />
    <glyph glyph-name="Ucircumflex" unicode="&#xdb;" horiz-adv-x="762" 
d="M345 -11q-122 0 -190.5 62t-68.5 169q0 50 16 111l98 369h123l-103 -386q-10 -38 -10 -77q0 -61 38 -98t109 -37q155 0 208 200l107 398h123l-112 -417q-80 -294 -338 -294zM329 758l155 146h113l77 -146h-91l-58 67l-96 -67h-100z" />
    <glyph glyph-name="Udieresis" unicode="&#xdc;" horiz-adv-x="762" 
d="M345 -11q-122 0 -190.5 62t-68.5 169q0 50 16 111l98 369h123l-103 -386q-10 -38 -10 -77q0 -61 38 -98t109 -37q155 0 208 200l107 398h123l-112 -417q-80 -294 -338 -294zM549 758l32 118h123l-33 -118h-122zM350 758l32 118h123l-32 -118h-123z" />
    <glyph glyph-name="Yacute" unicode="&#xdd;" horiz-adv-x="655" 
d="M189 0l74 278l-156 422h136l106 -316l277 316h152l-395 -435l-71 -265h-123zM370 758l150 164l108 -49l-153 -115h-105z" />
    <glyph glyph-name="Thorn" unicode="&#xde;" horiz-adv-x="683" 
d="M19 0l188 700h123l-29 -110h98q122 0 193 -52t71 -154q0 -125 -95 -195.5t-247 -70.5h-146l-32 -118h-124zM203 226h124q97 0 152.5 39t55.5 109q0 49 -37 77t-104 28h-123z" />
    <glyph glyph-name="germandbls" unicode="&#xdf;" horiz-adv-x="628" 
d="M225 -2l26 96q101 0 147.5 33.5t46.5 88.5q0 83 -135 101l22 83q164 39 164 145q0 41 -27 65t-70 24q-51 0 -87.5 -37t-54.5 -105l-131 -492h-121l135 502q63 235 264 235q95 0 151.5 -51t56.5 -130q0 -74 -46 -123t-126 -74q121 -42 121 -146q0 -96 -82 -155.5
t-237 -59.5h-17z" />
    <glyph glyph-name="agrave" unicode="&#xe0;" horiz-adv-x="583" 
d="M174 -11q-69 0 -115 40t-46 105q0 89 65 139.5t170 50.5q82 0 158 -26l3 11q6 24 6 42q0 78 -115 78q-73 0 -145 -29l-20 100q88 36 189 36q103 0 157.5 -43t54.5 -121q0 -34 -11 -75l-79 -297h-119l18 69q-75 -80 -171 -80zM221 78q55 0 101 37t59 87l6 23
q-66 20 -120 20q-60 0 -95 -26.5t-35 -68.5q0 -34 22.5 -53t61.5 -19zM342 595l-91 115l113 49l61 -164h-83z" />
    <glyph glyph-name="aacute" unicode="&#xe1;" horiz-adv-x="583" 
d="M174 -11q-69 0 -115 40t-46 105q0 89 65 139.5t170 50.5q82 0 158 -26l3 11q6 24 6 42q0 78 -115 78q-73 0 -145 -29l-20 100q88 36 189 36q103 0 157.5 -43t54.5 -121q0 -34 -11 -75l-79 -297h-119l18 69q-75 -80 -171 -80zM221 78q55 0 101 37t59 87l6 23
q-66 20 -120 20q-60 0 -95 -26.5t-35 -68.5q0 -34 22.5 -53t61.5 -19zM289 595l150 164l108 -49l-153 -115h-105z" />
    <glyph glyph-name="acircumflex" unicode="&#xe2;" horiz-adv-x="583" 
d="M174 -11q-69 0 -115 40t-46 105q0 89 65 139.5t170 50.5q82 0 158 -26l3 11q6 24 6 42q0 78 -115 78q-73 0 -145 -29l-20 100q88 36 189 36q103 0 157.5 -43t54.5 -121q0 -34 -11 -75l-79 -297h-119l18 69q-75 -80 -171 -80zM221 78q55 0 101 37t59 87l6 23
q-66 20 -120 20q-60 0 -95 -26.5t-35 -68.5q0 -34 22.5 -53t61.5 -19zM199 595l155 146h113l77 -146h-91l-58 67l-96 -67h-100z" />
    <glyph glyph-name="atilde" unicode="&#xe3;" horiz-adv-x="583" 
d="M174 -11q-69 0 -115 40t-46 105q0 89 65 139.5t170 50.5q82 0 158 -26l3 11q6 24 6 42q0 78 -115 78q-73 0 -145 -29l-20 100q88 36 189 36q103 0 157.5 -43t54.5 -121q0 -34 -11 -75l-79 -297h-119l18 69q-75 -80 -171 -80zM221 78q55 0 101 37t59 87l6 23
q-66 20 -120 20q-60 0 -95 -26.5t-35 -68.5q0 -34 22.5 -53t61.5 -19zM250 590l-67 32q56 122 138 122q35 0 75 -31q34 -27 52 -27q20 0 34.5 14.5t31.5 44.5l68 -32q-56 -122 -139 -122q-37 0 -75 31q-36 27 -51 27q-33 0 -67 -59z" />
    <glyph glyph-name="adieresis" unicode="&#xe4;" horiz-adv-x="583" 
d="M174 -11q-69 0 -115 40t-46 105q0 89 65 139.5t170 50.5q82 0 158 -26l3 11q6 24 6 42q0 78 -115 78q-73 0 -145 -29l-20 100q88 36 189 36q103 0 157.5 -43t54.5 -121q0 -34 -11 -75l-79 -297h-119l18 69q-75 -80 -171 -80zM221 78q55 0 101 37t59 87l6 23
q-66 20 -120 20q-60 0 -95 -26.5t-35 -68.5q0 -34 22.5 -53t61.5 -19zM410 595l32 118h123l-33 -118h-122zM211 595l32 118h123l-32 -118h-123z" />
    <glyph glyph-name="aring" unicode="&#xe5;" horiz-adv-x="583" 
d="M174 -11q-69 0 -115 40t-46 105q0 89 65 139.5t170 50.5q82 0 158 -26l3 11q6 24 6 42q0 78 -115 78q-73 0 -145 -29l-20 100q88 36 189 36q103 0 157.5 -43t54.5 -121q0 -34 -11 -75l-79 -297h-119l18 69q-75 -80 -171 -80zM221 78q55 0 101 37t59 87l6 23
q-66 20 -120 20q-60 0 -95 -26.5t-35 -68.5q0 -34 22.5 -53t61.5 -19zM389 594q-48 0 -77 27.5t-29 69.5q0 51 36.5 87.5t88.5 36.5q48 0 77 -27.5t29 -69.5q0 -51 -36.5 -87.5t-88.5 -36.5zM390 642q29 0 49 22.5t20 52.5q0 22 -14 36t-38 14q-29 0 -49 -22.5t-20 -52.5
q0 -22 14 -36t38 -14z" />
    <glyph glyph-name="ae" unicode="&#xe6;" horiz-adv-x="948" 
d="M431 92q-112 -103 -233 -103q-85 0 -135 41t-50 111q0 86 65 134.5t170 48.5q82 0 158 -26l3 11q6 24 6 42q0 78 -115 78q-73 0 -145 -29l-20 100q88 36 189 36q145 0 183 -90q85 93 200 93q96 0 151.5 -58t55.5 -147q0 -57 -23 -112h-384q0 -62 35.5 -98.5t101.5 -36.5
q67 0 136 51l57 -77q-84 -73 -204 -73q-144 0 -202 104zM520 302h275q4 18 4 37q0 44 -26 72.5t-79 28.5q-59 0 -106 -38.5t-68 -99.5zM400 221q-68 24 -133 24q-60 0 -95 -26.5t-35 -68.5q0 -34 24.5 -53t68.5 -19q41 0 90.5 24.5t84.5 61.5q-5 30 -5 57z" />
    <glyph glyph-name="ccedilla" unicode="&#xe7;" horiz-adv-x="561" 
d="M204 0q-73 23 -116.5 81.5t-43.5 141.5q0 129 93 222.5t219 93.5q146 0 214 -120l-94 -64q-24 38 -53.5 58.5t-76.5 20.5q-72 0 -126.5 -63t-54.5 -147q0 -60 36 -96t89 -36q68 0 135 59l64 -79q-91 -83 -200 -84h-1l-107 -153l-93 44z" />
    <glyph glyph-name="egrave" unicode="&#xe8;" horiz-adv-x="600" 
d="M159 220q1 -61 36.5 -97t100.5 -36q68 0 135 51l58 -77q-89 -73 -205 -73q-110 0 -175 62.5t-65 168.5q0 79 38.5 152t111.5 120.5t161 47.5q98 0 154.5 -58t56.5 -147q0 -52 -23 -114h-384zM172 303h274q5 13 5 36q0 44 -26.5 72.5t-78.5 28.5q-60 0 -106.5 -38
t-67.5 -99zM348 595l-91 115l113 49l61 -164h-83z" />
    <glyph glyph-name="eacute" unicode="&#xe9;" horiz-adv-x="600" 
d="M159 220q1 -61 36.5 -97t100.5 -36q68 0 135 51l58 -77q-89 -73 -205 -73q-110 0 -175 62.5t-65 168.5q0 79 38.5 152t111.5 120.5t161 47.5q98 0 154.5 -58t56.5 -147q0 -52 -23 -114h-384zM172 303h274q5 13 5 36q0 44 -26.5 72.5t-78.5 28.5q-60 0 -106.5 -38
t-67.5 -99zM293 595l150 164l108 -49l-153 -115h-105z" />
    <glyph glyph-name="ecircumflex" unicode="&#xea;" horiz-adv-x="600" 
d="M159 220q1 -61 36.5 -97t100.5 -36q68 0 135 51l58 -77q-89 -73 -205 -73q-110 0 -175 62.5t-65 168.5q0 79 38.5 152t111.5 120.5t161 47.5q98 0 154.5 -58t56.5 -147q0 -52 -23 -114h-384zM172 303h274q5 13 5 36q0 44 -26.5 72.5t-78.5 28.5q-60 0 -106.5 -38
t-67.5 -99zM202 595l155 146h113l77 -146h-91l-58 67l-96 -67h-100z" />
    <glyph glyph-name="edieresis" unicode="&#xeb;" horiz-adv-x="600" 
d="M159 220q1 -61 36.5 -97t100.5 -36q68 0 135 51l58 -77q-89 -73 -205 -73q-110 0 -175 62.5t-65 168.5q0 79 38.5 152t111.5 120.5t161 47.5q98 0 154.5 -58t56.5 -147q0 -52 -23 -114h-384zM172 303h274q5 13 5 36q0 44 -26.5 72.5t-78.5 28.5q-60 0 -106.5 -38
t-67.5 -99zM416 595l32 118h123l-33 -118h-122zM217 595l32 118h123l-32 -118h-123z" />
    <glyph glyph-name="igrave" unicode="&#xec;" horiz-adv-x="286" 
d="M12 0l142 528h121l-142 -528h-121zM199 595l-91 115l113 49l61 -164h-83z" />
    <glyph glyph-name="iacute" unicode="&#xed;" horiz-adv-x="286" 
d="M12 0l142 528h121l-142 -528h-121zM158 595l150 164l108 -49l-153 -115h-105z" />
    <glyph glyph-name="icircumflex" unicode="&#xee;" horiz-adv-x="286" 
d="M12 0l142 528h121l-142 -528h-121zM52 595l155 146h113l77 -146h-91l-58 67l-96 -67h-100z" />
    <glyph glyph-name="idieresis" unicode="&#xef;" horiz-adv-x="286" 
d="M12 0l142 528h121l-142 -528h-121zM267 595l32 118h123l-33 -118h-122zM68 595l32 118h123l-32 -118h-123z" />
    <glyph glyph-name="eth" unicode="&#xf0;" horiz-adv-x="631" 
d="M281 -12q-106 0 -173 64t-67 165q0 111 79.5 190t187.5 79q87 0 152 -57l-71 160l-141 -55l-32 64l143 56l-34 76h123l16 -37l115 45l32 -64l-119 -46l48 -116q45 -107 45 -200q0 -136 -83.5 -230t-220.5 -94zM289 92q73 0 123 52.5t50 121.5q0 57 -37 94t-98 37
q-71 0 -120 -51.5t-49 -121.5q0 -61 36.5 -96.5t94.5 -35.5z" />
    <glyph glyph-name="ntilde" unicode="&#xf1;" horiz-adv-x="617" 
d="M5 0l141 528h121l-18 -68q79 79 160 79q74 0 117.5 -42.5t43.5 -115.5q0 -31 -16 -93l-76 -288h-121l78 293q8 27 8 53q0 40 -24 61.5t-68 21.5q-50 0 -89.5 -36.5t-55.5 -95.5l-80 -297h-121zM267 590l-67 32q56 122 138 122q35 0 75 -31q34 -27 52 -27q20 0 34.5 14.5
t31.5 44.5l68 -32q-56 -122 -139 -122q-37 0 -75 31q-36 27 -51 27q-33 0 -67 -59z" />
    <glyph glyph-name="ograve" unicode="&#xf2;" horiz-adv-x="646" 
d="M293 -12q-112 0 -180 67.5t-68 173.5q0 122 91 216t217 94q112 0 180 -68t68 -174q0 -122 -91.5 -215.5t-216.5 -93.5zM300 93q74 0 127.5 63t53.5 138q0 66 -37 103t-98 37q-75 0 -128 -63.5t-53 -137.5q0 -66 37 -103t98 -37zM359 595l-91 115l113 49l61 -164h-83z" />
    <glyph glyph-name="oacute" unicode="&#xf3;" horiz-adv-x="646" 
d="M293 -12q-112 0 -180 67.5t-68 173.5q0 122 91 216t217 94q112 0 180 -68t68 -174q0 -122 -91.5 -215.5t-216.5 -93.5zM300 93q74 0 127.5 63t53.5 138q0 66 -37 103t-98 37q-75 0 -128 -63.5t-53 -137.5q0 -66 37 -103t98 -37zM298 595l150 164l108 -49l-153 -115h-105z
" />
    <glyph glyph-name="ocircumflex" unicode="&#xf4;" horiz-adv-x="646" 
d="M293 -12q-112 0 -180 67.5t-68 173.5q0 122 91 216t217 94q112 0 180 -68t68 -174q0 -122 -91.5 -215.5t-216.5 -93.5zM300 93q74 0 127.5 63t53.5 138q0 66 -37 103t-98 37q-75 0 -128 -63.5t-53 -137.5q0 -66 37 -103t98 -37zM215 595l155 146h113l77 -146h-91l-58 67
l-96 -67h-100z" />
    <glyph glyph-name="otilde" unicode="&#xf5;" horiz-adv-x="646" 
d="M293 -12q-112 0 -180 67.5t-68 173.5q0 122 91 216t217 94q112 0 180 -68t68 -174q0 -122 -91.5 -215.5t-216.5 -93.5zM300 93q74 0 127.5 63t53.5 138q0 66 -37 103t-98 37q-75 0 -128 -63.5t-53 -137.5q0 -66 37 -103t98 -37zM263 590l-67 32q56 122 138 122
q35 0 75 -31q34 -27 52 -27q20 0 34.5 14.5t31.5 44.5l68 -32q-56 -122 -139 -122q-37 0 -75 31q-36 27 -51 27q-33 0 -67 -59z" />
    <glyph glyph-name="odieresis" unicode="&#xf6;" horiz-adv-x="646" 
d="M293 -12q-112 0 -180 67.5t-68 173.5q0 122 91 216t217 94q112 0 180 -68t68 -174q0 -122 -91.5 -215.5t-216.5 -93.5zM300 93q74 0 127.5 63t53.5 138q0 66 -37 103t-98 37q-75 0 -128 -63.5t-53 -137.5q0 -66 37 -103t98 -37zM424 595l32 118h123l-33 -118h-122z
M225 595l32 118h123l-32 -118h-123z" />
    <glyph glyph-name="divide" unicode="&#xf7;" horiz-adv-x="640" 
d="M214 82l36 129h122l-35 -129h-123zM99 300l30 109h472l-29 -109h-473zM327 496l34 131h122l-35 -131h-121z" />
    <glyph glyph-name="oslash" unicode="&#xf8;" horiz-adv-x="646" 
d="M293 -12q-101 0 -169 58l-58 -51h-114l124 109q-31 56 -31 125q0 122 91 216t217 94q99 0 165 -56l58 51h113l-121 -107q33 -56 33 -130q0 -122 -91.5 -215.5t-216.5 -93.5zM169 181l265 231q-35 26 -85 26q-78 0 -133 -65t-55 -140q0 -28 8 -52zM297 89q78 0 133 64.5
t55 140.5q0 33 -9 57l-267 -234q34 -28 88 -28z" />
    <glyph glyph-name="ugrave" unicode="&#xf9;" horiz-adv-x="618" 
d="M209 -11q-74 0 -117.5 42.5t-43.5 115.5q0 31 16 93l77 288h121l-79 -293q-7 -28 -7 -53q0 -40 23.5 -61.5t67.5 -21.5q50 0 89.5 36.5t55.5 95.5l80 297h121l-141 -528h-121l18 68q-79 -79 -160 -79zM369 595l-91 115l113 49l61 -164h-83z" />
    <glyph glyph-name="uacute" unicode="&#xfa;" horiz-adv-x="618" 
d="M209 -11q-74 0 -117.5 42.5t-43.5 115.5q0 31 16 93l77 288h121l-79 -293q-7 -28 -7 -53q0 -40 23.5 -61.5t67.5 -21.5q50 0 89.5 36.5t55.5 95.5l80 297h121l-141 -528h-121l18 68q-79 -79 -160 -79zM308 595l150 164l108 -49l-153 -115h-105z" />
    <glyph glyph-name="ucircumflex" unicode="&#xfb;" horiz-adv-x="618" 
d="M209 -11q-74 0 -117.5 42.5t-43.5 115.5q0 31 16 93l77 288h121l-79 -293q-7 -28 -7 -53q0 -40 23.5 -61.5t67.5 -21.5q50 0 89.5 36.5t55.5 95.5l80 297h121l-141 -528h-121l18 68q-79 -79 -160 -79zM216 595l155 146h113l77 -146h-91l-58 67l-96 -67h-100z" />
    <glyph glyph-name="udieresis" unicode="&#xfc;" horiz-adv-x="618" 
d="M209 -11q-74 0 -117.5 42.5t-43.5 115.5q0 31 16 93l77 288h121l-79 -293q-7 -28 -7 -53q0 -40 23.5 -61.5t67.5 -21.5q50 0 89.5 36.5t55.5 95.5l80 297h121l-141 -528h-121l18 68q-79 -79 -160 -79zM429 595l32 118h123l-33 -118h-122zM230 595l32 118h123l-32 -118
h-123z" />
    <glyph glyph-name="yacute" unicode="&#xfd;" horiz-adv-x="585" 
d="M65 -163q-67 0 -119 36l64 89q32 -23 68 -23q46 0 90 59l-77 530h124l44 -391l233 391h132l-341 -543q-51 -80 -101.5 -114t-116.5 -34zM295 595l150 164l108 -49l-153 -115h-105z" />
    <glyph glyph-name="thorn" unicode="&#xfe;" horiz-adv-x="668" 
d="M-38 -160l239 890h121l-74 -272q81 81 169 81q90 0 148 -61.5t58 -164.5q0 -137 -88.5 -230.5t-205.5 -93.5q-121 0 -178 105l-68 -254h-121zM315 92q74 0 128 62.5t54 149.5q0 60 -34 95.5t-91 35.5q-74 0 -132 -63t-58 -146q0 -58 37 -96t96 -38z" />
    <glyph glyph-name="ydieresis" unicode="&#xff;" horiz-adv-x="585" 
d="M65 -163q-67 0 -119 36l64 89q32 -23 68 -23q46 0 90 59l-77 530h124l44 -391l233 391h132l-341 -543q-51 -80 -101.5 -114t-116.5 -34zM404 595l32 118h123l-33 -118h-122zM205 595l32 118h123l-32 -118h-123z" />
    <glyph glyph-name="dotlessi" unicode="&#x131;" horiz-adv-x="286" 
d="M12 0l142 528h121l-142 -528h-121z" />
    <glyph glyph-name="Lslash" unicode="&#x141;" horiz-adv-x="655" 
d="M56 0l74 278l-80 -22l31 114l81 23l82 307h120l-73 -271l220 61l-31 -114l-219 -61l-55 -203h371l-30 -112h-491z" />
    <glyph glyph-name="lslash" unicode="&#x142;" horiz-adv-x="344" 
d="M42 0l80 296l-81 -22l30 115l81 22l86 319h121l-76 -282l82 22l-31 -115l-81 -22l-90 -333h-121z" />
    <glyph glyph-name="OE" unicode="&#x152;" horiz-adv-x="1096" 
d="M424 0q-182 0 -277 95q-72 72 -72 200q0 163 113 274q131 131 363 131h601l-30 -110h-374l-49 -183h330l-30 -109h-329l-51 -188h380l-30 -110h-545zM434 112h63l128 476h-88q-162 0 -257 -95q-77 -77 -77 -193q0 -81 48 -129q59 -59 183 -59z" />
    <glyph glyph-name="oe" unicode="&#x153;" horiz-adv-x="1033" 
d="M593 222q0 -62 35.5 -98.5t101.5 -36.5q67 0 136 51l57 -77q-84 -73 -204 -73q-74 0 -126.5 30t-76.5 85q-87 -115 -223 -115q-111 0 -179.5 68t-68.5 173q0 123 90.5 216.5t216.5 93.5q77 0 130.5 -33.5t77.5 -89.5q87 123 229 123q99 0 155 -58t56 -147q0 -57 -23 -112
h-384zM606 302h274q5 15 5 37q0 44 -26.5 72.5t-78.5 28.5q-59 0 -106 -38.5t-68 -99.5zM299 93q76 0 129 61t53 138q0 65 -37 103.5t-97 38.5q-76 0 -129 -62t-53 -139q0 -63 37 -101.5t97 -38.5z" />
    <glyph glyph-name="Scaron" unicode="&#x160;" horiz-adv-x="637" 
d="M296 -10q-198 0 -297 131l93 77q87 -99 211 -99q59 0 97 27t38 70q0 32 -27.5 54.5t-101.5 51.5q-90 36 -135 78t-45 110q0 97 77 158.5t192 61.5q162 0 257 -105l-86 -84q-82 80 -180 80q-59 0 -94.5 -27.5t-35.5 -64.5q0 -33 28.5 -54.5t107.5 -52.5
q87 -34 130.5 -76.5t43.5 -111.5q0 -100 -79.5 -162t-193.5 -62zM377 758l-77 146h90l58 -66l97 66h100l-156 -146h-112z" />
    <glyph glyph-name="scaron" unicode="&#x161;" horiz-adv-x="498" 
d="M217 -12q-63 0 -126 24.5t-107 70.5l72 74q74 -74 170 -74q37 0 61 17t24 46q0 19 -18 34t-59 32q-78 32 -115 63.5t-37 87.5q0 76 56.5 125.5t150.5 49.5q58 0 112.5 -21.5t90.5 -52.5l-67 -78q-73 58 -145 58q-38 0 -59.5 -17t-21.5 -43q0 -20 19 -35t65 -34
q71 -30 108 -62.5t37 -85.5q0 -80 -59.5 -129.5t-151.5 -49.5zM276 595l-77 146h90l58 -66l97 66h100l-156 -146h-112z" />
    <glyph glyph-name="Ydieresis" unicode="&#x178;" horiz-adv-x="655" 
d="M189 0l74 278l-156 422h136l106 -316l277 316h152l-395 -435l-71 -265h-123zM482 758l32 118h123l-33 -118h-122zM283 758l32 118h123l-32 -118h-123z" />
    <glyph glyph-name="Zcaron" unicode="&#x17d;" horiz-adv-x="681" 
d="M-19 0l24 91l535 500h-387l30 109h557l-25 -91l-535 -500h404l-29 -109h-574zM402 758l-77 146h90l58 -66l97 66h100l-156 -146h-112z" />
    <glyph glyph-name="zcaron" unicode="&#x17e;" horiz-adv-x="554" 
d="M-24 0l23 83l388 346h-285l26 99h445l-22 -83l-389 -346h299l-27 -99h-458zM295 595l-77 146h90l58 -66l97 66h100l-156 -146h-112z" />
    <glyph glyph-name="florin" unicode="&#x192;" horiz-adv-x="538" 
d="M53 -9q-40 0 -80 8l27 99q24 -7 47 -7q52 0 86 76l83 189h-82l27 101h100l45 100q65 152 196 152q66 0 110 -18l-28 -100q-34 16 -75 16q-62 0 -100 -84l-29 -66h132l-27 -101h-150l-99 -225q-62 -140 -183 -140z" />
    <glyph glyph-name="circumflex" unicode="&#x2c6;" 
d="M167 595l155 146h113l77 -146h-91l-58 67l-96 -67h-100z" />
    <glyph glyph-name="caron" unicode="&#x2c7;" 
d="M280 595l-77 146h90l58 -66l97 66h100l-156 -146h-112z" />
    <glyph glyph-name="breve" unicode="&#x2d8;" 
d="M353 593q-72 0 -111 38.5t-39 96.5q0 8 1 13h85q1 -28 20 -45.5t55 -17.5q57 0 98 63h87q-21 -67 -75.5 -107.5t-120.5 -40.5z" />
    <glyph glyph-name="dotaccent" unicode="&#x2d9;" 
d="M277 594l33 120h124l-32 -120h-125z" />
    <glyph glyph-name="ring" unicode="&#x2da;" 
d="M358 594q-48 0 -77 27.5t-29 69.5q0 51 37 87.5t88 36.5q48 0 77 -27.5t29 -69.5q0 -51 -36.5 -87.5t-88.5 -36.5zM359 642q29 0 49 22.5t20 52.5q0 22 -14 36t-38 14q-29 0 -49 -22.5t-20 -52.5q0 -22 14 -36t38 -14z" />
    <glyph glyph-name="ogonek" unicode="&#x2db;" 
d="M230 -164q-81 -5 -123 16.5t-42 64.5q0 40 37 93h86q-22 -39 -22 -67q0 -47 79 -51z" />
    <glyph glyph-name="tilde" unicode="&#x2dc;" 
d="M224 590l-67 32q56 122 138 122q35 0 75 -31q34 -27 52 -27q20 0 34.5 14.5t31.5 44.5l68 -32q-56 -122 -139 -122q-37 0 -75 31q-36 27 -51 27q-33 0 -67 -59z" />
    <glyph glyph-name="hungarumlaut" unicode="&#x2dd;" 
d="M326 595l150 164l93 -49l-153 -115h-90zM144 595l149 164l93 -49l-152 -115h-90z" />
    <glyph glyph-name="Omega" unicode="&#x3a9;" horiz-adv-x="785" 
d="M649 0h-272l56 209q94 13 155.5 86.5t61.5 164.5q0 66 -45.5 109t-120.5 43q-110 0 -189 -76t-79 -185q0 -53 29 -94t82 -48q-20 -80 -56 -209h-271q22 81 26 96h184l15 54q-61 18 -93.5 75t-32.5 127q0 109 59.5 192.5t150 124.5t192.5 41q117 0 193 -67t76 -169
q0 -109 -75.5 -203.5t-190.5 -120.5q-1 -5 -7 -27t-8 -27h185q-4 -13 -13.5 -51t-11.5 -45z" />
    <glyph glyph-name="pi" unicode="&#x3c0;" 
d="M0 0v700h500v-700h-500zM81 49h340l-171 255zM50 95l170 254l-170 256v-510zM451 95v510l-172 -256zM250 395l171 255h-340z" />
    <glyph glyph-name="afii10023" unicode="&#x401;" horiz-adv-x="660" 
d="M512 758l32 118h123l-33 -118h-122zM313 758l32 118h123l-32 -118h-123zM19 0l188 700h514l-30 -110h-391l-49 -183h347l-30 -109h-347l-50 -188h397l-30 -110h-519z" />
    <glyph glyph-name="afii10051" unicode="&#x402;" horiz-adv-x="843" 
d="M490 -40q-76 0 -122 21l42 103q25 -11 63 -11q78 0 125.5 45.5t47.5 118.5q0 43 -31 73t-82 30q-101 0 -191 -66l-73 -274h-123l160 590h-199l29 110h567l-29 -110h-247l-54 -202q108 65 215 65q84 0 138 -53.5t54 -138.5q0 -128 -82 -214.5t-208 -86.5z" />
    <glyph glyph-name="afii10052" unicode="&#x403;" horiz-adv-x="581" 
d="M353 758l150 164l108 -49l-153 -115h-105zM19 0l187 700h464l-29 -110h-341l-159 -590h-122z" />
    <glyph glyph-name="afii10053" unicode="&#x404;" horiz-adv-x="730" 
d="M392 96q109 0 198 87l72 -79q-114 -116 -274 -116q-138 0 -225.5 80t-87.5 217q0 109 53 206.5t150 159t215 61.5q91 0 162 -38.5t108 -103.5l-100 -68q-63 100 -176 100q-90 0 -161.5 -55t-103.5 -140h297l-24 -109h-295q0 -80 54 -141t138 -61z" />
    <glyph glyph-name="afii10054" unicode="&#x405;" horiz-adv-x="637" 
d="M296 -10q-198 0 -297 131l93 77q87 -99 211 -99q59 0 97 27t38 70q0 32 -27.5 54.5t-101.5 51.5q-90 36 -135 78t-45 110q0 97 77 158.5t192 61.5q162 0 257 -105l-86 -84q-82 80 -180 80q-59 0 -94.5 -27.5t-35.5 -64.5q0 -33 28.5 -54.5t107.5 -52.5
q87 -34 130.5 -76.5t43.5 -111.5q0 -100 -79.5 -162t-193.5 -62z" />
    <glyph glyph-name="afii10055" unicode="&#x406;" horiz-adv-x="317" 
d="M26 0l188 700h124l-188 -700h-124z" />
    <glyph glyph-name="afii10056" unicode="&#x407;" horiz-adv-x="317" 
d="M320 758l32 118h123l-33 -118h-122zM121 758l32 118h123l-32 -118h-123zM26 0l188 700h124l-188 -700h-124z" />
    <glyph glyph-name="afii10057" unicode="&#x408;" horiz-adv-x="564" 
d="M190 -10q-72 0 -129 34.5t-90 95.5l90 71q52 -87 134 -87q39 0 68.5 15t48.5 45t30.5 58.5t22.5 70.5l109 407h127l-117 -435q-40 -149 -109 -212t-185 -63z" />
    <glyph glyph-name="afii10058" unicode="&#x409;" horiz-adv-x="1132" 
d="M32 -8q-70 0 -102 17l40 95q18 -8 53 -8q20 0 35.5 5t42.5 31t51.5 72.5t58 137.5t67.5 219l37 139h477l-67 -251h128q113 0 178.5 -51.5t65.5 -137.5q0 -123 -92 -191.5t-244 -68.5h-279l158 590h-236l-24 -89q-37 -136 -74 -231.5t-68.5 -149t-69 -83t-66.5 -37.5
t-70 -8zM634 109h135q95 0 148.5 35.5t53.5 103.5q0 44 -34 70.5t-96 26.5h-143z" />
    <glyph glyph-name="afii10059" unicode="&#x40a;" horiz-adv-x="1129" 
d="M20 0l188 700h122l-73 -271h331l73 271h123l-73 -271h150q107 0 170 -49t63 -131q0 -118 -88.5 -183.5t-234.5 -65.5h-298l88 326h-331l-88 -326h-122zM624 108h151q91 0 142 33t51 98q0 42 -32 66.5t-93 24.5h-159z" />
    <glyph glyph-name="afii10060" unicode="&#x40b;" horiz-adv-x="851" 
d="M147 0l159 590h-198l28 110h567l-29 -110h-247l-53 -196q118 58 213 58q89 0 140.5 -39t51.5 -112q0 -29 -9 -63l-64 -238h-122l54 200q8 32 8 52q0 42 -27 65t-79 23q-97 0 -195 -56l-76 -284h-122z" />
    <glyph glyph-name="afii10061" unicode="&#x40c;" horiz-adv-x="723" 
d="M394 758l150 164l108 -49l-153 -115h-105zM19 0l188 700h124l-95 -354l410 354h169l-356 -299l179 -401h-136l-141 328l-169 -142l-49 -186h-124z" />
    <glyph glyph-name="afii10062" unicode="&#x40e;" horiz-adv-x="706" 
d="M466 753q-62 0 -100.5 36t-39.5 97l75 14q11 -66 70 -66q66 0 95 66l72 -14q-19 -62 -64.5 -97.5t-107.5 -35.5zM136 -11q-93 0 -142 36l71 91q33 -22 80 -22q70 0 131 80l-152 526h131l110 -404l298 404h140l-406 -547q-122 -164 -261 -164z" />
    <glyph glyph-name="afii10145" unicode="&#x40f;" horiz-adv-x="744" 
d="M206 -150l40 150h-227l187 700h123l-159 -590h321l158 590h122l-188 -700h-216l-41 -150h-120z" />
    <glyph glyph-name="afii10017" unicode="&#x410;" horiz-adv-x="763" 
d="M-50 0l497 705h118l119 -705h-126l-27 169h-331l-117 -169h-133zM275 278h241l-45 283z" />
    <glyph glyph-name="afii10018" unicode="&#x411;" horiz-adv-x="699" 
d="M19 0l188 700h506l-28 -110h-384l-45 -161h162q108 0 170.5 -48.5t62.5 -131.5q0 -121 -91 -185t-243 -64h-298zM170 109h166q89 0 139.5 33.5t50.5 97.5q0 41 -32.5 65.5t-89.5 24.5h-175z" />
    <glyph glyph-name="afii10019" unicode="&#x412;" horiz-adv-x="717" 
d="M19 0l188 700h268q111 0 170 -46.5t59 -121.5q0 -70 -44 -116t-116 -62q108 -42 108 -143q0 -95 -79 -153t-219 -58h-335zM169 109h202q74 0 116.5 29t42.5 80q0 39 -33 61t-90 22h-187zM248 405h174q74 0 116 28t42 79q0 79 -116 79h-166z" />
    <glyph glyph-name="afii10020" unicode="&#x413;" horiz-adv-x="581" 
d="M19 0l187 700h464l-29 -110h-341l-159 -590h-122z" />
    <glyph glyph-name="afii10021" unicode="&#x414;" horiz-adv-x="764" 
d="M-92 -150l69 260h63q68 77 121 184.5t99 278.5l35 127h486l-159 -590h88l-86 -260h-104l40 150h-492l-51 -150h-109zM176 110h324l129 480h-245l-31 -110q-69 -244 -177 -370z" />
    <glyph glyph-name="afii10022" unicode="&#x415;" horiz-adv-x="660" 
d="M19 0l188 700h514l-30 -110h-391l-49 -183h347l-30 -109h-347l-50 -188h397l-30 -110h-519z" />
    <glyph glyph-name="afii10024" unicode="&#x416;" horiz-adv-x="1072" 
d="M-66 0l386 414l-172 286h136l209 -361l96 361h123l-94 -353l388 353h158l-342 -302l166 -398h-138l-130 312l-145 -124l-50 -188h-123l52 197l-72 118l-288 -315h-160z" />
    <glyph glyph-name="afii10025" unicode="&#x417;" horiz-adv-x="612" 
d="M258 -12q-186 0 -270 129l87 70q66 -89 186 -89q69 0 111.5 31.5t42.5 77.5q0 48 -37.5 71t-98.5 23h-66l26 104h68q78 0 125.5 29t47.5 80q0 42 -33 65t-85 23q-90 0 -172 -65l-65 79q107 96 250 96q101 0 165.5 -50t64.5 -127q0 -73 -49.5 -120t-137.5 -66
q55 -18 88.5 -55.5t33.5 -94.5q0 -91 -80.5 -151t-201.5 -60z" />
    <glyph glyph-name="afii10026" unicode="&#x418;" horiz-adv-x="765" 
d="M19 0l188 700h120l-136 -508l486 508h115l-187 -700h-121l134 508l-485 -508h-114z" />
    <glyph glyph-name="afii10027" unicode="&#x419;" horiz-adv-x="765" 
d="M498 753q-62 0 -100.5 36t-39.5 97l75 14q11 -66 70 -66q66 0 95 66l72 -14q-19 -62 -64.5 -97.5t-107.5 -35.5zM19 0l188 700h120l-136 -508l486 508h115l-187 -700h-121l134 508l-485 -508h-114z" />
    <glyph glyph-name="afii10028" unicode="&#x41a;" horiz-adv-x="723" 
d="M19 0l188 700h124l-95 -354l410 354h169l-356 -299l179 -401h-136l-141 328l-169 -142l-49 -186h-124z" />
    <glyph glyph-name="afii10029" unicode="&#x41b;" horiz-adv-x="765" 
d="M32 -9q-68 0 -102 18l39 95q20 -8 54 -8q21 0 36.5 5t42.5 31t51.5 72.5t57.5 137.5t67 219l37 139h477l-188 -700h-121l157 590h-236l-20 -76q-36 -136 -73 -233.5t-69.5 -153t-70.5 -87t-68.5 -40.5t-70.5 -9z" />
    <glyph glyph-name="afii10030" unicode="&#x41c;" horiz-adv-x="868" 
d="M19 0l188 700h125l122 -331l300 331h141l-188 -700h-125l135 502l-308 -330h-4l-129 328l-134 -500h-123z" />
    <glyph glyph-name="afii10031" unicode="&#x41d;" horiz-adv-x="756" 
d="M19 0l188 700h124l-78 -291h329l78 291h123l-188 -700h-123l79 295h-329l-79 -295h-124z" />
    <glyph glyph-name="afii10032" unicode="&#x41e;" horiz-adv-x="836" 
d="M390 -12q-139 0 -226.5 87.5t-87.5 219.5q0 106 52.5 201.5t149 155.5t213.5 60q139 0 227 -87.5t88 -219.5q0 -106 -52.5 -201.5t-149.5 -155.5t-214 -60zM403 101q78 0 142.5 44.5t98.5 112.5t34 140q0 88 -53.5 144.5t-145.5 56.5q-78 0 -142.5 -44.5t-98.5 -112.5
t-34 -140q0 -89 53.5 -145t145.5 -56z" />
    <glyph glyph-name="afii10033" unicode="&#x41f;" horiz-adv-x="744" 
d="M19 0l188 700h564l-188 -700h-123l159 590h-320l-158 -590h-122z" />
    <glyph glyph-name="afii10034" unicode="&#x420;" horiz-adv-x="674" 
d="M19 0l188 700h221q122 0 193 -52t71 -155q0 -124 -95 -195t-247 -71h-146l-61 -227h-124zM233 336h123q97 0 152.5 39t55.5 108q0 50 -36.5 77.5t-103.5 27.5h-124z" />
    <glyph glyph-name="afii10035" unicode="&#x421;" horiz-adv-x="730" 
d="M391 -12q-138 0 -227 81t-89 217q0 111 56.5 209t154.5 157.5t212 59.5q187 0 273 -150l-102 -69q-34 52 -77 79t-108 27q-112 0 -196.5 -92.5t-84.5 -215.5q0 -86 53 -138t137 -52q55 0 97.5 20t88.5 60l81 -82q-114 -111 -269 -111z" />
    <glyph glyph-name="afii10036" unicode="&#x422;" horiz-adv-x="618" 
d="M174 0l158 586h-223l31 114h568l-31 -114h-222l-158 -586h-123z" />
    <glyph glyph-name="afii10037" unicode="&#x423;" horiz-adv-x="706" 
d="M136 -11q-93 0 -142 36l71 91q33 -22 80 -22q70 0 131 80l-152 526h131l110 -404l298 404h140l-406 -547q-122 -164 -261 -164z" />
    <glyph glyph-name="afii10038" unicode="&#x424;" horiz-adv-x="905" 
d="M307 -28l21 78q-131 6 -202 79t-71 184q0 146 108.5 246t286.5 100h41l18 67h124l-18 -67q131 -5 203 -77.5t72 -182.5q0 -146 -109 -247.5t-286 -101.5h-43l-21 -78h-124zM357 160l105 390h-27q-114 0 -183 -62.5t-69 -161.5q0 -74 45.5 -119.5t128.5 -46.5zM480 160h31
q113 0 182.5 62t69.5 161q0 74 -46.5 119.5t-131.5 47.5z" />
    <glyph glyph-name="afii10039" unicode="&#x425;" horiz-adv-x="698" 
d="M-43 0l347 363l-161 337h138l112 -250l230 250h158l-336 -352l166 -348h-138l-118 261l-240 -261h-158z" />
    <glyph glyph-name="afii10040" unicode="&#x426;" horiz-adv-x="755" 
d="M512 -150l40 150h-532l188 700h121l-159 -590h321l159 590h122l-159 -590h88l-85 -260h-104z" />
    <glyph glyph-name="afii10041" unicode="&#x427;" horiz-adv-x="697" 
d="M416 0l74 279q-114 -56 -211 -56q-86 0 -132.5 43.5t-46.5 118.5q0 34 10 70l66 245h122l-64 -238q-6 -20 -6 -46q0 -83 103 -83q85 0 188 56l84 311h121l-187 -700h-121z" />
    <glyph glyph-name="afii10042" unicode="&#x428;" horiz-adv-x="1097" 
d="M20 0l187 700h122l-159 -590h277l158 590h121l-158 -590h276l159 590h121l-187 -700h-917z" />
    <glyph glyph-name="afii10043" unicode="&#x429;" horiz-adv-x="1109" 
d="M865 -150l41 150h-886l187 700h122l-159 -590h277l158 590h121l-158 -590h276l159 590h123l-159 -590h88l-85 -260h-105z" />
    <glyph glyph-name="afii10044" unicode="&#x42a;" horiz-adv-x="779" 
d="M130 0l158 590h-175l29 110h297l-68 -251h128q113 0 178.5 -51.5t65.5 -137.5q0 -123 -91.5 -191.5t-243.5 -68.5h-278zM281 110h135q94 0 147.5 35t53.5 103q0 44 -34.5 70t-95.5 26h-143z" />
    <glyph glyph-name="afii10045" unicode="&#x42b;" horiz-adv-x="930" 
d="M19 0l187 700h121l-66 -251h122q113 0 178.5 -52t65.5 -137q0 -123 -91.5 -191.5t-243.5 -68.5h-273zM169 110h131q94 0 147.5 35t53.5 103q0 44 -34.5 70t-95.5 26h-138zM648 0l187 700h122l-187 -700h-122z" />
    <glyph glyph-name="afii10046" unicode="&#x42c;" horiz-adv-x="667" 
d="M19 0l187 700h121l-66 -251h127q113 0 178 -52t65 -137q0 -123 -91.5 -191.5t-243.5 -68.5h-277zM170 110h134q94 0 147.5 35t53.5 103q0 44 -34.5 70t-95.5 26h-142z" />
    <glyph glyph-name="afii10047" unicode="&#x42d;" horiz-adv-x="730" 
d="M284 -12q-96 0 -168 40.5t-107 110.5l100 66q62 -107 180 -107q94 0 165.5 57t97.5 143h-292l24 109h287q-6 88 -56.5 141.5t-134.5 53.5q-108 0 -191 -80l-71 80q113 110 265 110q134 0 223.5 -83.5t89.5 -220.5q0 -109 -51.5 -204.5t-147 -155.5t-213.5 -60z" />
    <glyph glyph-name="afii10048" unicode="&#x42e;" horiz-adv-x="1069" 
d="M644 -13q-130 0 -210.5 88t-82.5 222h-129l-80 -297h-123l188 700h122l-78 -295h115q38 133 143.5 220t237.5 87t212 -84.5t80 -215.5q0 -174 -116 -299.5t-279 -125.5zM655 96q105 0 181 90t76 214q0 88 -49 145t-130 57q-105 0 -181 -90.5t-76 -214.5q0 -88 49 -144.5
t130 -56.5z" />
    <glyph glyph-name="afii10049" unicode="&#x42f;" horiz-adv-x="720" 
d="M-25 0l265 266q-128 44 -128 177q0 119 92 188t245 69h298l-187 -700h-123l66 245h-141l-234 -245h-153zM374 345h155l66 246h-148q-100 0 -154.5 -38t-54.5 -107q0 -48 36.5 -74.5t99.5 -26.5z" />
    <glyph glyph-name="afii10065" unicode="&#x430;" horiz-adv-x="583" 
d="M174 -11q-69 0 -115 40t-46 105q0 89 65 139.5t170 50.5q82 0 158 -26l3 11q6 24 6 42q0 78 -115 78q-73 0 -145 -29l-20 100q88 36 189 36q103 0 157.5 -43t54.5 -121q0 -34 -11 -75l-79 -297h-119l18 69q-75 -80 -171 -80zM221 78q55 0 101 37t59 87l6 23
q-66 20 -120 20q-60 0 -95 -26.5t-35 -68.5q0 -34 22.5 -53t61.5 -19z" />
    <glyph glyph-name="afii10066" unicode="&#x431;" horiz-adv-x="647" 
d="M301 -13q-118 0 -182.5 68.5t-64.5 181.5q0 53 9 105.5t30.5 107.5t53.5 99t82 76.5t112 44.5l287 53l12 -97l-295 -59q-135 -27 -171 -151q32 37 85 64t121 27q100 0 163.5 -59.5t63.5 -158.5q0 -122 -92 -212t-214 -90zM305 92q70 0 125.5 57.5t55.5 134.5
q0 60 -36 96.5t-99 36.5q-73 0 -126 -56.5t-53 -134.5q0 -58 35 -96t98 -38z" />
    <glyph glyph-name="afii10067" unicode="&#x432;" horiz-adv-x="593" 
d="M5 0l141 528h240q86 0 130 -35t44 -91q0 -52 -35 -87t-94 -49q40 -11 65.5 -39t25.5 -69q0 -70 -60 -114t-169 -44h-288zM150 89h132q55 0 86.5 21t31.5 58q0 30 -25 46t-68 16h-119zM209 308h113q54 0 85.5 21t31.5 56q0 56 -84 56h-111z" />
    <glyph glyph-name="afii10068" unicode="&#x433;" horiz-adv-x="463" 
d="M5 0l141 528h370l-27 -101h-249l-115 -427h-120z" />
    <glyph glyph-name="afii10069" unicode="&#x434;" horiz-adv-x="639" 
d="M-80 -127l59 228h55q101 122 161 358l18 69h407l-115 -427h78l-75 -228h-101l34 127h-372l-45 -127h-104zM161 101h224l88 326h-172l-15 -57q-19 -74 -55.5 -152t-69.5 -117z" />
    <glyph glyph-name="afii10070" unicode="&#x435;" horiz-adv-x="600" 
d="M284 -12q-110 0 -175 62.5t-65 168.5q0 79 38.5 152t111.5 120.5t161 47.5q98 0 154.5 -58t56.5 -147q0 -52 -23 -114h-384q1 -61 36.5 -97t100.5 -36q68 0 135 51l58 -77q-89 -73 -205 -73zM172 303h274q5 13 5 36q0 44 -26.5 72.5t-78.5 28.5q-60 0 -106.5 -38
t-67.5 -99z" />
    <glyph glyph-name="afii10072" unicode="&#x436;" horiz-adv-x="876" 
d="M-61 0l294 318l-126 210h125l150 -263l70 263h120l-70 -262l287 262h142l-255 -226l119 -302h-125l-91 222l-115 -100l-33 -122h-119l34 130l-56 92l-204 -222h-147z" />
    <glyph glyph-name="afii10073" unicode="&#x437;" horiz-adv-x="515" 
d="M207 -12q-136 0 -223 78l65 82q70 -62 157 -62q52 0 86 21.5t34 58.5q0 58 -97 58h-69l22 85h62q48 0 78 22.5t30 57.5q0 24 -22.5 38.5t-61.5 14.5q-92 0 -161 -52l-41 74q99 75 226 75q85 0 134 -36.5t49 -91.5q0 -94 -107 -137q80 -31 80 -107q0 -78 -62.5 -128.5
t-178.5 -50.5z" />
    <glyph glyph-name="afii10074" unicode="&#x438;" horiz-adv-x="635" 
d="M5 0l141 528h117l-95 -353l348 353h115l-141 -528h-117l95 354l-347 -354h-116z" />
    <glyph glyph-name="afii10075" unicode="&#x439;" horiz-adv-x="635" 
d="M399 590q-61 0 -97 35.5t-37 95.5l71 13q11 -65 68 -65q64 0 92 65l69 -13q-19 -61 -62.5 -96t-103.5 -35zM5 0l141 528h117l-95 -353l348 353h115l-141 -528h-117l95 354l-347 -354h-116z" />
    <glyph glyph-name="afii10076" unicode="&#x43a;" horiz-adv-x="580" 
d="M6 0l141 528h120l-68 -254l287 254h150l-265 -229l128 -299h-130l-96 218l-115 -96l-32 -122h-120z" />
    <glyph glyph-name="afii10077" unicode="&#x43b;" horiz-adv-x="629" 
d="M15 -7q-51 0 -76 11l33 94q22 -5 35 -5q33 0 54.5 18t57 100.5t81.5 248.5l19 68h405l-141 -528h-120l115 427h-174l-12 -44q-30 -110 -59 -184.5t-52 -115t-53.5 -61t-53 -25t-59.5 -4.5z" />
    <glyph glyph-name="afii10078" unicode="&#x43c;" horiz-adv-x="721" 
d="M5 0l141 528h106l105 -242l230 242h130l-141 -528h-120l94 352l-230 -232l-103 231l-94 -351h-118z" />
    <glyph glyph-name="afii10079" unicode="&#x43d;" horiz-adv-x="626" 
d="M5 0l141 528h121l-56 -210h234l57 210h120l-141 -528h-120l58 218h-235l-58 -218h-121z" />
    <glyph glyph-name="afii10080" unicode="&#x43e;" horiz-adv-x="646" 
d="M293 -12q-112 0 -180 67.5t-68 173.5q0 122 91 216t217 94q112 0 180 -68t68 -174q0 -122 -91.5 -215.5t-216.5 -93.5zM300 93q74 0 127.5 63t53.5 138q0 66 -37 103t-98 37q-75 0 -128 -63.5t-53 -137.5q0 -66 37 -103t98 -37z" />
    <glyph glyph-name="afii10081" unicode="&#x43f;" horiz-adv-x="618" 
d="M5 0l141 528h468l-141 -528h-120l115 427h-228l-115 -427h-120z" />
    <glyph glyph-name="afii10082" unicode="&#x440;" horiz-adv-x="668" 
d="M-38 -160l184 688h121l-19 -70q81 81 169 81q90 0 148 -61.5t58 -164.5q0 -137 -88.5 -230.5t-205.5 -93.5q-121 0 -178 105l-68 -254h-121zM315 92q74 0 128 62.5t54 149.5q0 60 -34 95.5t-91 35.5q-74 0 -132 -63t-58 -146q0 -58 37 -96t96 -38z" />
    <glyph glyph-name="afii10083" unicode="&#x441;" horiz-adv-x="561" 
d="M286 -12q-104 0 -173 64.5t-69 170.5q0 129 93 222.5t219 93.5q146 0 214 -120l-94 -64q-24 38 -53.5 58.5t-76.5 20.5q-72 0 -126.5 -63t-54.5 -147q0 -60 36 -96t89 -36q68 0 135 59l64 -79q-92 -84 -203 -84z" />
    <glyph glyph-name="afii10084" unicode="&#x442;" horiz-adv-x="506" 
d="M124 0l114 427h-178l27 101h469l-27 -101h-171l-115 -427h-119z" />
    <glyph glyph-name="afii10085" unicode="&#x443;" horiz-adv-x="585" 
d="M65 -163q-67 0 -119 36l64 89q32 -23 68 -23q46 0 90 59l-77 530h124l44 -391l233 391h132l-341 -543q-51 -80 -101.5 -114t-116.5 -34z" />
    <glyph glyph-name="afii10086" unicode="&#x444;" horiz-adv-x="892" 
d="M276 -160l52 196q-62 -46 -129 -46q-74 0 -115.5 49t-41.5 143q0 61 18 122t51.5 113.5t89 85.5t123.5 33q71 0 124 -55l63 236h119l-62 -231q68 50 130 50q74 0 116 -51.5t42 -145.5q0 -61 -18 -121t-52 -112t-89 -84t-122 -32q-76 0 -126 48l-53 -198h-120zM255 90
q48 0 99 37l72 273q-33 36 -88 36q-79 0 -126 -73.5t-47 -167.5q0 -48 22.5 -76.5t67.5 -28.5zM560 90q79 0 125.5 71t46.5 167q0 48 -22.5 78t-66.5 30q-49 0 -98 -36l-74 -274q33 -36 89 -36z" />
    <glyph glyph-name="afii10087" unicode="&#x445;" horiz-adv-x="572" 
d="M-44 0l269 275l-122 253h130l75 -169l156 169h146l-256 -265l125 -263h-130l-79 180l-167 -180h-147z" />
    <glyph glyph-name="afii10088" unicode="&#x446;" horiz-adv-x="634" 
d="M401 -127l34 127h-430l141 528h121l-114 -427h226l115 427h120l-114 -427h77l-75 -228h-101z" />
    <glyph glyph-name="afii10089" unicode="&#x447;" horiz-adv-x="577" 
d="M317 0l52 201q-32 -15 -79.5 -26.5t-85.5 -11.5q-66 0 -103.5 34t-37.5 91q0 22 8 51l51 189h120l-45 -172q-7 -28 -7 -36q0 -26 17 -41.5t50 -15.5q75 0 140 38l61 227h120l-142 -528h-119z" />
    <glyph glyph-name="afii10090" unicode="&#x448;" horiz-adv-x="903" 
d="M5 0l141 528h121l-115 -427h196l115 427h120l-115 -427h196l115 427h120l-141 -528h-753z" />
    <glyph glyph-name="afii10091" unicode="&#x449;" horiz-adv-x="919" 
d="M685 -127l35 127h-715l141 528h121l-115 -427h196l115 427h120l-115 -427h196l115 427h120l-115 -427h77l-74 -228h-102z" />
    <glyph glyph-name="afii10092" unicode="&#x44a;" horiz-adv-x="636" 
d="M89 0q46 169 115 427h-146l27 101h266l-51 -190h118q86 0 135 -39.5t49 -103.5q0 -92 -69 -143.5t-183 -51.5h-261zM236 97h110q63 0 99.5 23.5t36.5 67.5q0 29 -24 44.5t-60 15.5h-122z" />
    <glyph glyph-name="afii10093" unicode="&#x44b;" horiz-adv-x="793" 
d="M5 0l142 528h120l-51 -190h103q86 0 135 -39.5t49 -103.5q0 -92 -69 -143.5t-183 -51.5h-246zM152 97h95q63 0 99.5 23.5t36.5 67.5q0 29 -24 44.5t-60 15.5h-107zM527 0l141 528h120l-141 -528h-120z" />
    <glyph glyph-name="afii10094" unicode="&#x44c;" horiz-adv-x="552" 
d="M5 0l142 528h120l-51 -190h118q86 0 135 -39.5t49 -103.5q0 -92 -69 -143.5t-183 -51.5h-261zM152 97h110q63 0 99.5 23.5t36.5 67.5q0 29 -24 44.5t-60 15.5h-122z" />
    <glyph glyph-name="afii10095" unicode="&#x44d;" horiz-adv-x="561" 
d="M211 -12q-77 0 -132 32.5t-83 84.5l88 65q45 -82 128 -82q58 0 106 38t69 97h-202l20 89h192q-4 60 -40 93t-88 33q-73 0 -133 -57l-68 73q85 85 211 85q99 0 168 -67t69 -173q0 -130 -90 -220.5t-215 -90.5z" />
    <glyph glyph-name="afii10096" unicode="&#x44e;" horiz-adv-x="860" 
d="M517 -12q-106 0 -166.5 62.5t-65.5 163.5h-102l-57 -214h-121l141 528h120l-57 -214h88q30 97 107.5 161t179.5 64q109 0 170 -66t61 -169q0 -128 -85 -222t-213 -94zM523 92q75 0 124.5 62t49.5 145q0 62 -32.5 99t-90.5 37q-75 0 -124.5 -63.5t-49.5 -145.5
q0 -63 32 -98.5t91 -35.5z" />
    <glyph glyph-name="afii10097" unicode="&#x44f;" horiz-adv-x="592" 
d="M-26 0l189 196q-44 15 -67.5 50t-23.5 82q0 91 70 145.5t187 54.5h258l-141 -528h-120l47 174h-87l-165 -174h-147zM285 264h112l45 166h-105q-70 0 -107.5 -26t-37.5 -73q0 -67 93 -67z" />
    <glyph glyph-name="afii10071" unicode="&#x451;" horiz-adv-x="600" 
d="M411 595l32 118h123l-33 -118h-122zM212 595l32 118h123l-32 -118h-123zM284 -12q-110 0 -175 62.5t-65 168.5q0 79 38.5 152t111.5 120.5t161 47.5q98 0 154.5 -58t56.5 -147q0 -52 -23 -114h-384q1 -61 36.5 -97t100.5 -36q68 0 135 51l58 -77q-89 -73 -205 -73z
M172 303h274q5 13 5 36q0 44 -26.5 72.5t-78.5 28.5q-60 0 -106.5 -38t-67.5 -99z" />
    <glyph glyph-name="afii10099" unicode="&#x452;" horiz-adv-x="618" 
d="M299 -12q-66 0 -101 16l37 99q24 -11 61 -11q90 0 126 135q18 70 18 92q0 44 -23.5 70.5t-68.5 26.5q-51 0 -90.5 -36.5t-55.5 -95.5l-77 -284h-120l149 560h-73l23 87h73l23 83h120l-22 -83h191l-23 -87h-191l-30 -113q78 78 161 78q76 0 119 -46.5t43 -119.5
q0 -35 -11 -79q-19 -82 -39 -133.5t-49.5 -89.5t-70 -53.5t-99.5 -15.5z" />
    <glyph glyph-name="afii10100" unicode="&#x453;" horiz-adv-x="463" 
d="M241 595l150 164l108 -49l-153 -115h-105zM5 0l141 528h370l-27 -101h-249l-115 -427h-120z" />
    <glyph glyph-name="afii10101" unicode="&#x454;" horiz-adv-x="562" 
d="M561 421l-86 -60q-41 77 -126 77q-57 0 -104 -35t-68 -91h206l-20 -89h-201q3 -65 38.5 -99.5t91.5 -34.5q75 0 137 56l62 -77q-87 -80 -209 -80q-100 0 -168.5 64t-68.5 169q0 131 90 224.5t215 93.5q75 0 128 -33t83 -85z" />
    <glyph glyph-name="afii10102" unicode="&#x455;" horiz-adv-x="498" 
d="M217 -12q-63 0 -126 24.5t-107 70.5l72 74q74 -74 170 -74q37 0 61 17t24 46q0 19 -18 34t-59 32q-78 32 -115 63.5t-37 87.5q0 76 56.5 125.5t150.5 49.5q58 0 112.5 -21.5t90.5 -52.5l-67 -78q-73 58 -145 58q-38 0 -59.5 -17t-21.5 -43q0 -20 19 -35t65 -34
q71 -30 108 -62.5t37 -85.5q0 -80 -59.5 -129.5t-151.5 -49.5z" />
    <glyph glyph-name="afii10103" unicode="&#x456;" horiz-adv-x="286" 
d="M171 609l31 115h131l-32 -115h-130zM12 0l142 528h121l-142 -528h-121z" />
    <glyph glyph-name="afii10104" unicode="&#x457;" horiz-adv-x="286" 
d="M260 595l32 118h123l-33 -118h-122zM61 595l32 118h123l-32 -118h-123zM12 0l142 528h121l-142 -528h-121z" />
    <glyph glyph-name="afii10105" unicode="&#x458;" horiz-adv-x="285" 
d="M171 609l31 115h130l-31 -115h-130zM-48 -163q-41 0 -77 9l26 96q26 -6 40 -6q55 0 73 72l140 520h121l-144 -535q-42 -156 -179 -156z" />
    <glyph glyph-name="afii10106" unicode="&#x459;" horiz-adv-x="908" 
d="M14 -7q-50 0 -75 11l33 94q22 -5 35 -5q20 0 33 5t32 25t36.5 58.5t41 108t50.5 170.5l19 68h405l-51 -190h118q85 0 134 -38.5t49 -104.5q0 -92 -68.5 -143.5t-183.5 -51.5h-259l115 427h-174l-12 -40q-31 -110 -60 -184.5t-52 -116t-52.5 -62.5t-52.5 -26t-61 -5z
M509 97h110q63 0 99.5 23.5t36.5 67.5q0 29 -24 44.5t-60 15.5h-122z" />
    <glyph glyph-name="afii10107" unicode="&#x45a;" horiz-adv-x="896" 
d="M5 0l141 528h121l-54 -201h235l54 201h119l-53 -201h109q86 0 135.5 -37.5t49.5 -101.5q0 -88 -69.5 -138t-182.5 -50h-249l61 227h-236l-61 -227h-120zM504 96h98q65 0 102.5 22t37.5 64q0 29 -25.5 44.5t-64.5 15.5h-107z" />
    <glyph glyph-name="afii10108" unicode="&#x45b;" horiz-adv-x="618" 
d="M5 0l150 561h-74l23 86h74l22 83h121l-22 -83h191l-23 -86h-192l-29 -114q79 79 160 79q74 0 117.5 -42.5t43.5 -115.5q0 -31 -16 -93l-73 -275h-121l76 281q7 28 7 52q0 40 -24 62t-67 22q-51 0 -90.5 -36.5t-55.5 -96.5l-77 -284h-121z" />
    <glyph glyph-name="afii10109" unicode="&#x45c;" horiz-adv-x="580" 
d="M289 595l150 164l108 -49l-153 -115h-105zM6 0l141 528h120l-68 -254l287 254h150l-265 -229l128 -299h-130l-96 218l-115 -96l-32 -122h-120z" />
    <glyph glyph-name="afii10110" unicode="&#x45e;" horiz-adv-x="585" 
d="M359 590q-61 0 -97 35.5t-37 95.5l71 13q11 -65 68 -65q64 0 92 65l69 -13q-19 -61 -62.5 -96t-103.5 -35zM65 -163q-67 0 -119 36l64 89q32 -23 68 -23q46 0 90 59l-77 530h124l44 -391l233 391h132l-341 -543q-51 -80 -101.5 -114t-116.5 -34z" />
    <glyph glyph-name="afii10193" unicode="&#x45f;" horiz-adv-x="615" 
d="M148 -127l34 127h-177l141 528h121l-114 -427h226l114 427h120l-140 -528h-175l-35 -127h-115z" />
    <glyph glyph-name="afii10050" unicode="&#x490;" horiz-adv-x="581" 
d="M19 0l188 700h343l40 150h104l-53 -260h-341l-159 -590h-122z" />
    <glyph glyph-name="afii10098" unicode="&#x491;" horiz-adv-x="463" 
d="M5 0l141 528h254l34 124h101l-46 -225h-249l-115 -427h-120z" />
    <glyph glyph-name="endash" unicode="&#x2013;" horiz-adv-x="530" 
d="M53 249l31 115h416l-31 -115h-416z" />
    <glyph glyph-name="emdash" unicode="&#x2014;" horiz-adv-x="900" 
d="M53 249l31 115h786l-31 -115h-786z" />
    <glyph glyph-name="quoteleft" unicode="&#x2018;" horiz-adv-x="293" 
d="M109 423l31 116q23 84 69 122.5t125 43.5l9 -51q-101 -14 -115 -94h51l-37 -137h-133z" />
    <glyph glyph-name="quoteright" unicode="&#x2019;" horiz-adv-x="293" 
d="M102 417l-9 52q101 14 115 94h-51l37 137h133l-31 -117q-23 -83 -69 -121.5t-125 -44.5z" />
    <glyph glyph-name="quotesinglbase" unicode="&#x201a;" horiz-adv-x="293" 
d="M-45 -145l-9 51q99 14 115 94h-52l37 137h133l-31 -116q-22 -84 -68 -122t-125 -44z" />
    <glyph glyph-name="quotedblleft" unicode="&#x201c;" horiz-adv-x="524" 
d="M341 422l32 117q22 83 68 121.5t125 44.5l9 -52q-101 -14 -115 -93h52l-37 -138h-134zM110 422l31 117q22 83 68 121.5t125 44.5l9 -52q-101 -14 -115 -93h52l-37 -138h-133z" />
    <glyph glyph-name="quotedblright" unicode="&#x201d;" horiz-adv-x="524" 
d="M331 417l-9 52q101 14 115 94h-51l37 137h133l-31 -117q-23 -83 -69 -121.5t-125 -44.5zM100 417l-9 52q100 14 115 94h-52l37 137h133l-31 -117q-22 -83 -68 -121.5t-125 -44.5z" />
    <glyph glyph-name="quotedblbase" unicode="&#x201e;" horiz-adv-x="525" 
d="M187 -145l-9 51q101 14 115 94h-52l37 137h133l-31 -116q-22 -84 -68 -122t-125 -44zM-45 -145l-9 51q99 14 115 94h-52l37 137h133l-31 -116q-22 -84 -68 -122t-125 -44z" />
    <glyph glyph-name="dagger" unicode="&#x2020;" horiz-adv-x="411" 
d="M157 238l82 275l-124 -9l20 71l117 -9l26 134h79l-48 -134l124 9l-20 -71l-119 9l-65 -275h-72z" />
    <glyph glyph-name="daggerdbl" unicode="&#x2021;" horiz-adv-x="417" 
d="M93 0l47 134l-123 -9l19 71l118 -9l36 163l51 163l-123 -9l20 71l118 -9l25 134h79l-48 -134l124 9l-20 -71l-118 9l-36 -163l-52 -163l124 9l-19 -71l-118 9l-25 -134h-79z" />
    <glyph glyph-name="bullet" unicode="&#x2022;" horiz-adv-x="491" 
d="M242 207q-52 0 -82.5 30.5t-30.5 83.5q0 69 46.5 123.5t114.5 54.5q52 0 82 -31t30 -83q0 -69 -46.5 -123.5t-113.5 -54.5z" />
    <glyph glyph-name="ellipsis" unicode="&#x2026;" horiz-adv-x="815" 
d="M535 0l37 135h130l-36 -135h-131zM272 0l36 135h131l-36 -135h-131zM9 0l36 135h131l-37 -135h-130z" />
    <glyph glyph-name="perthousand" unicode="&#x2030;" horiz-adv-x="1262" 
d="M236 346q-67 0 -108 42t-41 109q0 82 55.5 146.5t137.5 64.5q66 0 107.5 -42.5t41.5 -108.5q0 -82 -55.5 -146.5t-137.5 -64.5zM62 0l675 700h109l-676 -700h-108zM1028 -8q-66 0 -107.5 42.5t-41.5 108.5q0 83 55.5 147t137.5 64q67 0 108 -42t41 -108
q0 -83 -55.5 -147.5t-137.5 -64.5zM628 -8q-67 0 -108 42.5t-41 108.5q0 83 55.5 147t137.5 64q66 0 107.5 -42t41.5 -108q0 -83 -55.5 -147.5t-137.5 -64.5zM241 420q44 0 74 41.5t30 91.5q0 38 -18.5 59.5t-52.5 21.5q-44 0 -74 -42t-30 -91q0 -38 19 -59.5t52 -21.5z
M1033 66q44 0 74.5 42t30.5 91q0 38 -19 60t-52 22q-44 0 -74.5 -42t-30.5 -92q0 -37 19 -59t52 -22zM633 66q44 0 74.5 42t30.5 91q0 38 -19 60t-52 22q-44 0 -74.5 -42t-30.5 -92q0 -37 19 -59t52 -22z" />
    <glyph glyph-name="guilsinglleft" unicode="&#x2039;" horiz-adv-x="354" 
d="M152 34l-106 220l2 8l230 226l72 -65l-181 -177l81 -167z" />
    <glyph glyph-name="guilsinglright" unicode="&#x203a;" horiz-adv-x="354" 
d="M74 34l-71 64l180 178l-80 167l97 44l107 -219l-2 -8z" />
    <glyph glyph-name="fraction" unicode="&#x2044;" horiz-adv-x="529" 
d="M-121 -98l695 856h112l-696 -856h-111z" />
    <glyph glyph-name="Euro" unicode="&#x20ac;" horiz-adv-x="709" 
d="M389 -12q-110 0 -181.5 64t-81.5 173h-98l23 85h76q5 47 16 85h-70l23 85h73q45 105 130 168.5t196 63.5q186 0 243 -162l-105 -51q-24 52 -57 77t-89 25q-117 0 -181 -121h225l-23 -85h-234q-14 -38 -19 -85h231l-23 -85h-209q8 -59 44.5 -92.5t92.5 -33.5q48 0 84.5 19
t74.5 60l83 -72q-99 -118 -244 -118z" />
    <glyph glyph-name="afii61352" unicode="&#x2116;" horiz-adv-x="1025" 
d="M19 0l187 700h117l179 -480l129 480h123l-187 -700h-106l-187 495l-132 -495h-123zM696 142l21 78h265l-20 -78h-266zM884 282q-58 0 -93 37t-35 92q0 69 49 120.5t117 51.5q58 0 93 -37t35 -91q0 -70 -48.5 -121.5t-117.5 -51.5zM892 351q33 0 56.5 28.5t23.5 68.5
q0 29 -16 47.5t-42 18.5q-32 0 -56.5 -28t-24.5 -67q0 -30 16.5 -49t42.5 -19z" />
    <glyph glyph-name="published" unicode="&#x2117;" horiz-adv-x="830" 
d="M436 -12q-151 0 -256 106t-105 255t106 256t257 107t256 -106t105 -255t-106 -256t-257 -107zM436 24q138 0 231.5 95.5t93.5 231.5t-93 230.5t-230 94.5q-138 0 -231 -95.5t-93 -231.5t92.5 -230.5t229.5 -94.5zM308 167v380h153q68 0 107.5 -35t39.5 -94
q0 -62 -44 -96.5t-110 -34.5h-72v-120h-74zM382 352h73q36 0 57 17.5t21 47.5q0 31 -20.5 47.5t-57.5 16.5h-73v-129z" />
    <glyph glyph-name="trademark" unicode="&#x2122;" horiz-adv-x="697" 
d="M363 392l85 308h59l53 -146l132 146h66l-85 -308h-57l61 219l-135 -148h-6l-55 148l-61 -219h-57zM143 392l69 254h-94l15 54h248l-14 -54h-95l-70 -254h-59z" />
    <glyph glyph-name="partialdiff" unicode="&#x2202;" 
d="M0 0v700h500v-700h-500zM81 49h340l-171 255zM50 95l170 254l-170 256v-510zM451 95v510l-172 -256zM250 395l171 255h-340z" />
    <glyph glyph-name="Delta" unicode="&#x2206;" horiz-adv-x="775" 
d="M-40 0l487 702h115l113 -702h-715zM170 109h362l-60 446z" />
    <glyph glyph-name="product" unicode="&#x220f;" 
d="M0 0v700h500v-700h-500zM81 49h340l-171 255zM50 95l170 254l-170 256v-510zM451 95v510l-172 -256zM250 395l171 255h-340z" />
    <glyph glyph-name="summation" unicode="&#x2211;" 
d="M0 0v700h500v-700h-500zM81 49h340l-171 255zM50 95l170 254l-170 256v-510zM451 95v510l-172 -256zM250 395l171 255h-340z" />
    <glyph glyph-name="minus" unicode="&#x2212;" horiz-adv-x="640" 
d="M99 298l29 109h473l-30 -109h-472z" />
    <glyph glyph-name="radical" unicode="&#x221a;" horiz-adv-x="539" 
d="M647 791l-430 -954h-37l-121 340l-77 -11l-5 79l137 22l85 -265l356 789h92z" />
    <glyph glyph-name="infinity" unicode="&#x221e;" horiz-adv-x="805" 
d="M243 176q-78 0 -124.5 50.5t-46.5 128.5q0 77 45 127.5t121 50.5q31 0 58.5 -9t53 -29.5t41.5 -36t42 -44.5q26 29 32.5 36.5t30.5 29.5t38.5 29.5t39 15.5t50.5 8q77 0 123 -50.5t46 -127.5q0 -78 -45 -128.5t-123 -50.5q-93 0 -192 111q-50 -54 -92.5 -82.5
t-97.5 -28.5zM241 269q63 0 135 83q-28 28 -41.5 40.5t-42.5 30t-53 17.5q-35 0 -56 -25.5t-21 -61.5q0 -37 21 -60.5t58 -23.5zM625 269q36 0 56.5 24t20.5 60q0 38 -21.5 62.5t-58.5 24.5q-56 0 -134 -88q23 -25 39.5 -39.5t44 -29t53.5 -14.5z" />
    <glyph glyph-name="integral" unicode="&#x222b;" 
d="M0 0v700h500v-700h-500zM81 49h340l-171 255zM50 95l170 254l-170 256v-510zM451 95v510l-172 -256zM250 395l171 255h-340z" />
    <glyph glyph-name="approxequal" unicode="&#x2248;" horiz-adv-x="640" 
d="M657 528q-25 -64 -72 -111.5t-107 -47.5q-42 0 -129.5 33t-115.5 33q-27 0 -52 -20t-39 -48l-65 13q27 66 74 113.5t107 47.5q42 0 126.5 -33.5t116.5 -33.5q28 0 52.5 19.5t39.5 47.5q3 0 17.5 -3t29.5 -6.5t17 -3.5zM602 322q-25 -64 -72.5 -111.5t-106.5 -47.5
q-43 0 -130 33.5t-114 33.5t-52.5 -20.5t-40.5 -48.5l-65 13q27 66 74 113.5t106 47.5q44 0 128.5 -33.5t115.5 -33.5q28 0 53 19t40 48q3 -1 32 -7t32 -6z" />
    <glyph glyph-name="notequal" unicode="&#x2260;" horiz-adv-x="640" 
d="M125 420l30 110h270l105 134l78 -45l-71 -89h91l-30 -110h-145l-108 -138h217l-30 -108h-271l-102 -131l-77 45l66 86h-89l30 108h143l109 138h-216z" />
    <glyph glyph-name="lessequal" unicode="&#x2264;" horiz-adv-x="640" 
d="M524 130l-444 181l30 116l542 180l-31 -120l-412 -122l346 -123zM488 -6h-493l27 103h494z" />
    <glyph glyph-name="greaterequal" unicode="&#x2265;" horiz-adv-x="640" 
d="M583 310l-541 -180l31 123l411 122l-345 122l30 110l445 -181zM499 -5h-494l27 101h494z" />
    <glyph glyph-name="lozenge" unicode="&#x25ca;" 
d="M0 0v700h500v-700h-500zM81 49h340l-171 255zM50 95l170 254l-170 256v-510zM451 95v510l-172 -256zM250 395l171 255h-340z" />
    <glyph glyph-name="cyrBreve" unicode="&#xf6d1;" 
d="M354 590q-62 0 -100.5 36t-39.5 97l75 14q11 -66 70 -66q66 0 95 66l72 -14q-19 -62 -64.5 -97.5t-107.5 -35.5z" />
    <glyph glyph-name="cyrbreve" unicode="&#xf6d4;" 
d="M353 590q-61 0 -97 35.5t-37 95.5l71 13q11 -65 68 -65q64 0 92 65l69 -13q-19 -61 -62.5 -96t-103.5 -35z" />
    <glyph glyph-name="apple" unicode="&#xf8ff;" 
d="M0 0v700h500v-700h-500zM81 49h340l-171 255zM50 95l170 254l-170 256v-510zM451 95v510l-172 -256zM250 395l171 255h-340z" />
    <glyph glyph-name="ff" unicode="&#xfb00;" horiz-adv-x="793" 
d="M429 0l114 424h-67l28 104h67l11 43q41 164 200 164q61 0 104 -18l-27 -101q-38 16 -74 16q-66 0 -87 -74l-8 -30h146l-28 -104h-144l-114 -424h-121zM33 0l114 424h-67l28 104h67l10 43q44 164 201 164q61 0 104 -18l-27 -101q-38 16 -74 16q-67 0 -87 -74l-8 -30h146
l-28 -104h-144l-114 -424h-121z" />
    <glyph glyph-name="nbspace" horiz-adv-x="300" 
 />
    </font>
</defs>
</svg>
