<?xml version="1.0" standalone="no"?>
<!DOCTYPE svg PUBLIC "-//W3C//DTD SVG 1.1//EN" "http://www.w3.org/Graphics/SVG/1.1/DTD/svg11.dtd" >
<svg xmlns="http://www.w3.org/2000/svg" xmlns:xlink="http://www.w3.org/1999/xlink" version="1.1">
<metadata>
Created by FontForge 20170731 at Wed Dec 12 22:24:28 2007
 By Aleksey,,,
Copyright (c) 2000 The Hoefler Type Foundry, Inc., dba Hoefler &#38; Frere-Jones. All Rights Reserved.
</metadata>
<defs>
<font id="GothamPro-Medium" horiz-adv-x="500" >
  <font-face 
    font-family="Gotham Pro Medium"
    font-weight="400"
    font-stretch="normal"
    units-per-em="1000"
    panose-1="2 0 6 3 3 0 0 2 0 4"
    ascent="800"
    descent="-200"
    x-height="528"
    cap-height="700"
    bbox="-70 -165.029 1180 922"
    underline-thickness="20"
    underline-position="-173"
    unicode-range="U+0020-FB04"
  />
<missing-glyph 
d="M0 0v700h500v-700h-500zM81 49h339l-170 255zM49 96l171 254l-171 254v-508zM450 96v508l-171 -254zM250 395l170 255h-339z" />
    <glyph glyph-name="fi" unicode="fi" horiz-adv-x="662" 
d="M454 609v115h130v-115h-130zM103 0v424h-67v101h67v38q0 88 43 131q42 42 119 42q51 0 98 -14v-102q-39 13 -71 13q-70 0 -70 -80v-29h140v-100h-138v-424h-121zM459 0v528h121v-528h-121z" />
    <glyph glyph-name="fl" unicode="fl" horiz-adv-x="662" 
d="M103 0v424h-67v101h67v38q0 88 43 131q42 42 119 42q51 0 98 -14v-102q-39 13 -71 13q-70 0 -70 -80v-29h140v-100h-138v-424h-121zM459 0v730h121v-730h-121z" />
    <glyph glyph-name="ffi" unicode="ffi" horiz-adv-x="1038" 
d="M830 609v115h130v-115h-130zM479 0v424h-67v101h67v38q0 88 43 131q42 42 118 42q52 0 99 -14v-102q-39 13 -71 13q-70 0 -70 -80v-29h140v-100h-138v-424h-121zM103 0v424h-67v101h67v38q0 88 43 131q42 42 119 42q51 0 98 -14v-102q-39 13 -71 13q-70 0 -70 -80v-29
h140v-100h-138v-424h-121zM834 0v528h122v-528h-122z" />
    <glyph glyph-name="ffl" unicode="ffl" horiz-adv-x="1038" 
d="M479 0v424h-67v101h67v38q0 88 43 131q42 42 118 42q52 0 99 -14v-102q-39 13 -71 13q-70 0 -70 -80v-29h140v-100h-138v-424h-121zM103 0v424h-67v101h67v38q0 88 43 131q42 42 119 42q51 0 98 -14v-102q-39 13 -71 13q-70 0 -70 -80v-29h140v-100h-138v-424h-121z
M834 0v730h122v-730h-122z" />
    <glyph glyph-name=".notdef" 
d="M0 0v700h500v-700h-500zM81 49h339l-170 255zM49 96l171 254l-171 254v-508zM450 96v508l-171 -254zM250 395l170 255h-339z" />
    <glyph glyph-name=".null" horiz-adv-x="0" 
 />
    <glyph glyph-name="nonmarkingreturn" horiz-adv-x="333" 
 />
    <glyph glyph-name="space" unicode=" " horiz-adv-x="300" 
 />
    <glyph glyph-name="exclam" unicode="!" horiz-adv-x="302" 
d="M118 221l-38 444v35h142v-35l-37 -444h-67zM85 0v137h133v-137h-133z" />
    <glyph glyph-name="quotedbl" unicode="&#x22;" horiz-adv-x="487" 
d="M279 401l24 299h137v-5l-98 -294h-63zM60 401l23 299h137v-5l-97 -294h-63z" />
    <glyph glyph-name="numbersign" unicode="#" horiz-adv-x="700" 
d="M101 0l28 161h-90v104h108l29 174h-100v104h118l27 157h107l-27 -157h164l26 157h107l-27 -157h89v-104h-107l-29 -174h100v-104h-118l-28 -161h-107l28 161h-164l-27 -161h-107zM253 265h164l30 174h-164z" />
    <glyph glyph-name="dollar" unicode="$" horiz-adv-x="642" 
d="M288 -98v100q-134 15 -239 99l64 91q90 -73 176 -86v196q-113 29 -163.5 76.5t-50.5 130.5q0 80 59 131.5t154 59.5v58h81v-60q107 -13 191 -76l-56 -94q-65 49 -136 64v-190q114 -29 165.5 -78t51.5 -130t-59.5 -133t-156.5 -60v-99h-81zM289 423v176q-46 -4 -71 -27
t-25 -58q0 -33 20.5 -54t75.5 -37zM368 102q47 4 73 26.5t26 60.5q0 34 -21.5 55.5t-77.5 38.5v-181z" />
    <glyph glyph-name="percent" unicode="%" horiz-adv-x="849" 
d="M212 350q-72 0 -118 52t-46 127q0 74 46.5 126.5t119.5 52.5q72 0 118 -52t46 -127q0 -74 -46.5 -126.5t-119.5 -52.5zM119 0l512 700h99l-512 -700h-99zM635 -8q-72 0 -118 52t-46 127q0 74 46.5 126.5t119.5 52.5q72 0 118 -52t46 -127q0 -74 -46.5 -126.5
t-119.5 -52.5zM214 427q34 0 54.5 29.5t20.5 72.5t-22 72.5t-55 29.5q-34 0 -54.5 -29.5t-20.5 -72.5t22 -72.5t55 -29.5zM637 69q34 0 54.5 29.5t20.5 72.5t-22 72.5t-55 29.5q-34 0 -54.5 -29.5t-20.5 -72.5t22 -72.5t55 -29.5z" />
    <glyph glyph-name="ampersand" unicode="&#x26;" horiz-adv-x="696" 
d="M575 -14l-93 95q-98 -91 -215 -91q-99 0 -163.5 55.5t-64.5 146.5q0 132 149 196q-58 74 -58 148q0 73 55 124.5t146 51.5q82 0 134 -49t52 -122q0 -124 -154 -182l120 -122q38 57 75 135l93 -49q-48 -96 -95 -160l110 -112zM298 425q56 20 83 46.5t27 64.5
q0 35 -22.5 57t-57.5 22q-37 0 -60 -24t-23 -62q0 -46 53 -104zM280 92q68 0 132 61l-156 159q-93 -40 -93 -118q0 -44 33 -73t84 -29z" />
    <glyph glyph-name="quotesingle" unicode="'" horiz-adv-x="269" 
d="M60 401l23 299h139v-5l-98 -294h-64z" />
    <glyph glyph-name="parenleft" unicode="(" horiz-adv-x="440" 
d="M340 -141q-277 152 -277 428t277 428l53 -81q-108 -71 -158.5 -154t-50.5 -193t50.5 -193t158.5 -154z" />
    <glyph glyph-name="parenright" unicode=")" horiz-adv-x="440" 
d="M101 -141l-53 81q108 71 158.5 154t50.5 193t-50.5 193t-158.5 154l53 81q277 -153 277 -428t-277 -428z" />
    <glyph glyph-name="asterisk" unicode="*" horiz-adv-x="430" 
d="M180 382l14 122l-100 -73l-36 61l114 50l-114 50l36 61l100 -73l-14 122h70l-14 -122l100 73l36 -61l-114 -50l114 -50l-36 -61l-100 73l14 -122h-70z" />
    <glyph glyph-name="plus" unicode="+" horiz-adv-x="640" 
d="M263 106v191h-192v110h192v191h114v-191h192v-110h-192v-191h-114z" />
    <glyph glyph-name="comma" unicode="," horiz-adv-x="269" 
d="M47 -145l-13 51q86 17 86 83q0 2 -0.5 5.5t-0.5 5.5h-51v137h133v-116q0 -81 -38 -120.5t-116 -45.5z" />
    <glyph glyph-name="hyphen" unicode="-" horiz-adv-x="408" 
d="M56 247v119h296v-119h-296z" />
    <glyph glyph-name="period" unicode="." horiz-adv-x="269" 
d="M68 0v137h133v-137h-133z" />
    <glyph glyph-name="slash" unicode="/" horiz-adv-x="521" 
d="M-25 -128l452 926h105l-452 -926h-105z" />
    <glyph glyph-name="zero" unicode="0" horiz-adv-x="724" 
d="M361 -12q-136 0 -220 103.5t-84 258.5q0 153 85.5 257.5t220.5 104.5t219.5 -104t84.5 -258q0 -153 -85.5 -257.5t-220.5 -104.5zM363 99q80 0 128.5 71.5t48.5 179.5q0 106 -50 178.5t-129 72.5q-80 0 -128.5 -71.5t-48.5 -179.5q0 -106 49.5 -178.5t129.5 -72.5z" />
    <glyph glyph-name="one" unicode="1" horiz-adv-x="396" 
d="M178 0v580l-126 -35l-26 100l188 60h86v-705h-122z" />
    <glyph glyph-name="two" unicode="2" horiz-adv-x="613" 
d="M49 0v97l241 205q74 62 102.5 102.5t28.5 86.5q0 50 -32 79.5t-81 29.5q-46 0 -82.5 -25t-79.5 -80l-87 68q54 76 111.5 111.5t146.5 35.5q103 0 167 -58t64 -153q0 -41 -10 -73.5t-35.5 -66t-55 -61t-81.5 -70.5l-144 -120h333v-108h-506z" />
    <glyph glyph-name="three" unicode="3" horiz-adv-x="618" 
d="M311 -12q-167 0 -268 123l86 80q78 -92 184 -92q53 0 87 29.5t34 78.5q0 51 -43.5 79.5t-117.5 28.5h-57l-20 77l189 201h-303v107h463v-92l-195 -200q92 -13 149 -61.5t57 -137.5q0 -97 -68.5 -159t-176.5 -62z" />
    <glyph glyph-name="four" unicode="4" horiz-adv-x="681" 
d="M412 0v157h-353l-23 88l389 460h105v-447h100v-101h-100v-157h-118zM182 258h230v277z" />
    <glyph glyph-name="five" unicode="5" horiz-adv-x="622" 
d="M304 -12q-147 0 -257 107l76 89q90 -84 180 -84q63 0 101 33.5t38 89.5q0 53 -40.5 84.5t-104.5 31.5q-63 0 -129 -31l-74 49l20 343h418v-109h-312l-11 -164q55 20 111 20q107 0 175 -57t68 -165q0 -107 -71.5 -172t-187.5 -65z" />
    <glyph glyph-name="six" unicode="6" horiz-adv-x="656" 
d="M337 -12q-121 0 -194 73q-43 43 -64.5 105.5t-21.5 164.5q0 167 78.5 274t221.5 107q117 0 214 -78l-66 -95q-79 61 -152 61q-76 0 -119.5 -61.5t-48.5 -160.5q72 70 167 70q106 0 175.5 -59.5t69.5 -162.5t-74.5 -170.5t-185.5 -67.5zM334 94q64 0 102 36t38 93
q0 53 -39.5 87.5t-103.5 34.5t-103 -36t-39 -89q0 -54 40 -90t105 -36z" />
    <glyph glyph-name="seven" unicode="7" horiz-adv-x="609" 
d="M106 0l314 592h-352v108h492v-93l-316 -607h-138z" />
    <glyph glyph-name="eight" unicode="8" horiz-adv-x="630" 
d="M315 -10q-116 0 -191.5 56t-75.5 146q0 118 126 171q-102 54 -102 158q0 81 69 135t174 54t174 -54t69 -137q0 -102 -102 -156q126 -58 126 -170q0 -92 -75 -147.5t-192 -55.5zM315 404q54 0 89.5 29.5t35.5 75.5q0 41 -35 69.5t-90 28.5t-90 -28.5t-35 -70.5
q0 -46 35.5 -75t89.5 -29zM315 93q67 0 107 30.5t40 76.5q0 47 -42 76.5t-105 29.5t-105 -29.5t-42 -78.5q0 -44 40 -74.5t107 -30.5z" />
    <glyph glyph-name="nine" unicode="9" horiz-adv-x="656" 
d="M299 -12q-123 0 -224 84l67 94q78 -66 160 -66q76 0 121 60.5t48 159.5q-62 -74 -164 -74q-112 0 -180 61t-68 163q0 104 73 173t188 69q120 0 194 -74q85 -85 85 -269q0 -171 -80.5 -276t-219.5 -105zM325 349q65 0 103.5 37t38.5 91q0 56 -40 92.5t-106 36.5
q-64 0 -101.5 -37.5t-37.5 -94.5q0 -55 39 -90t104 -35z" />
    <glyph glyph-name="colon" unicode=":" horiz-adv-x="279" 
d="M73 391v137h133v-137h-133zM73 0v137h133v-137h-133z" />
    <glyph glyph-name="semicolon" unicode=";" horiz-adv-x="279" 
d="M73 391v137h133v-137h-133zM52 -145l-13 51q86 17 86 83q0 2 -0.5 5.5t-0.5 5.5h-51v137h133v-116q0 -81 -38 -120.5t-116 -45.5z" />
    <glyph glyph-name="less" unicode="&#x3c;" horiz-adv-x="640" 
d="M547 77l-477 221v108l477 221v-115l-357 -159l357 -160v-116z" />
    <glyph glyph-name="equal" unicode="=" horiz-adv-x="640" 
d="M86 421v112h468v-112h-468zM86 171v112h468v-112h-468z" />
    <glyph glyph-name="greater" unicode="&#x3e;" horiz-adv-x="640" 
d="M93 77v115l357 159l-357 160v116l477 -221v-108z" />
    <glyph glyph-name="question" unicode="?" horiz-adv-x="541" 
d="M207 221l-20 162l5 5q185 7 185 114q0 43 -31 69t-84 26q-89 0 -163 -79l-75 80q98 111 241 111q106 0 170 -55.5t64 -149.5q0 -89 -55 -137.5t-146 -64.5l-10 -81h-81zM178 0v137h134v-137h-134z" />
    <glyph glyph-name="at" unicode="@" horiz-adv-x="980" 
d="M499 -162q-190 0 -318 127.5t-128 308.5q0 180 127.5 309t310.5 129q90 0 171.5 -33t139 -87.5t91.5 -126.5t34 -149q0 -120 -55.5 -184.5t-138.5 -64.5q-104 0 -148 70q-68 -70 -155 -70q-77 0 -129 52.5t-52 136.5q0 104 69 177t158 73q93 0 141 -74l12 60l97 -15
l-44 -252q-5 -30 -5 -43q0 -33 21 -52t57 -19q56 0 94 53.5t38 151.5q0 142 -115 250t-281 108q-169 0 -283.5 -116.5t-114.5 -283.5q0 -168 115 -283t291 -115q131 0 247 67l18 -30q-123 -75 -265 -75zM457 154q55 0 96.5 46.5t41.5 111.5q0 48 -30 78t-75 30
q-56 0 -97.5 -46t-41.5 -112q0 -51 29 -79.5t77 -28.5z" />
    <glyph glyph-name="A" unicode="A" horiz-adv-x="790" 
d="M30 0l308 705h114l308 -705h-130l-71 169h-331l-72 -169h-126zM273 278h241l-121 280z" />
    <glyph glyph-name="B" unicode="B" horiz-adv-x="722" 
d="M90 0v700h314q121 0 183 -62q47 -47 47 -118q0 -104 -100 -156q139 -47 139 -172q0 -92 -70 -142t-189 -50h-324zM211 405h168q61 0 96.5 24.5t35.5 72.5q0 42 -32 65.5t-91 23.5h-177v-186zM211 109h204q64 0 99.5 25t35.5 73q0 94 -144 94h-195v-192z" />
    <glyph glyph-name="C" unicode="C" horiz-adv-x="738" 
d="M415 -12q-152 0 -254 104.5t-102 257.5q0 152 102 257t259 105q91 0 154.5 -28t119.5 -81l-79 -91q-94 87 -196 87q-100 0 -165.5 -72t-65.5 -177q0 -104 66 -176.5t165 -72.5q60 0 106 22.5t95 68.5l79 -80q-59 -62 -125 -93t-159 -31z" />
    <glyph glyph-name="D" unicode="D" horiz-adv-x="782" 
d="M90 0v700h261q164 0 268 -99.5t104 -250.5q0 -150 -104.5 -250t-267.5 -100h-261zM213 112h138q109 0 176 66.5t67 171.5q0 104 -67 171t-176 67h-138v-476z" />
    <glyph glyph-name="E" unicode="E" horiz-adv-x="670" 
d="M90 0v700h519v-110h-396v-182h351v-110h-351v-188h401v-110h-524z" />
    <glyph glyph-name="F" unicode="F" horiz-adv-x="656" 
d="M90 0v700h521v-112h-398v-191h353v-112h-353v-285h-123z" />
    <glyph glyph-name="G" unicode="G" horiz-adv-x="784" 
d="M422 -12q-162 0 -262.5 102.5t-100.5 259.5q0 150 102.5 256t258.5 106q88 0 150 -23.5t119 -71.5l-78 -93q-44 38 -88.5 56.5t-107.5 18.5q-96 0 -161.5 -73t-65.5 -176q0 -109 66 -179.5t172 -70.5q98 0 169 53v131h-179v107h298v-294q-127 -109 -292 -109z" />
    <glyph glyph-name="H" unicode="H" horiz-adv-x="760" 
d="M90 0v700h123v-291h334v291h123v-700h-123v295h-334v-295h-123z" />
    <glyph glyph-name="I" unicode="I" horiz-adv-x="317" 
d="M97 0v700h123v-700h-123z" />
    <glyph glyph-name="J" unicode="J" horiz-adv-x="559" 
d="M245 -10q-141 0 -224 113l81 83q65 -82 141 -82q51 0 81 34.5t30 102.5v459h126v-462q0 -121 -65 -186q-62 -62 -170 -62z" />
    <glyph glyph-name="K" unicode="K" horiz-adv-x="725" 
d="M90 0v700h123v-352l333 352h151l-291 -301l304 -399h-149l-239 315l-109 -112v-203h-123z" />
    <glyph glyph-name="L" unicode="L" horiz-adv-x="619" 
d="M90 0v700h123v-588h368v-112h-491z" />
    <glyph glyph-name="M" unicode="M" horiz-adv-x="868" 
d="M90 0v700h131l213 -331l213 331h131v-700h-123v502l-221 -330h-4l-219 328v-500h-121z" />
    <glyph glyph-name="N" unicode="N" horiz-adv-x="790" 
d="M90 0v700h114l375 -484v484h121v-700h-103l-386 498v-498h-121z" />
    <glyph glyph-name="O" unicode="O" horiz-adv-x="850" 
d="M424 -12q-159 0 -262 105t-103 257q0 150 104 256t263 106t262 -105t103 -257q0 -150 -104 -256t-263 -106zM426 101q103 0 169.5 72t66.5 177q0 104 -67.5 176.5t-170.5 72.5t-169.5 -72t-66.5 -177q0 -104 67.5 -176.5t170.5 -72.5z" />
    <glyph glyph-name="P" unicode="P" horiz-adv-x="668" 
d="M90 0v700h276q122 0 194 -64t72 -172q0 -113 -79.5 -176t-200.5 -63h-139v-225h-123zM213 336h143q69 0 110 35t41 92q0 60 -40.5 92.5t-110.5 32.5h-143v-252z" />
    <glyph glyph-name="Q" unicode="Q" horiz-adv-x="850" 
d="M721 -21l-84 75q-93 -66 -213 -66q-159 0 -262 105t-103 257q0 150 104 256t263 106t262 -105t103 -257q0 -121 -71 -215l80 -68zM426 101q67 0 120 34l-120 102l79 90l121 -110q36 55 36 133q0 104 -67.5 176.5t-170.5 72.5t-169.5 -72t-66.5 -177q0 -104 67.5 -176.5
t170.5 -72.5z" />
    <glyph glyph-name="R" unicode="R" horiz-adv-x="723" 
d="M90 0v700h312q122 0 191 -60.5t69 -162.5q0 -83 -45 -136.5t-122 -75.5l189 -265h-145l-174 244h-152v-244h-123zM213 353h180q66 0 105 32t39 87q0 56 -38 86t-107 30h-179v-235z" />
    <glyph glyph-name="S" unicode="S" horiz-adv-x="640" 
d="M335 -10q-167 0 -292 112l74 88q105 -91 221 -91q57 0 90.5 24.5t33.5 65.5q0 39 -32 62.5t-126 45.5q-122 29 -177.5 73.5t-55.5 136.5q0 90 67 146.5t172 56.5q144 0 254 -88l-66 -93q-97 72 -190 72q-53 0 -83.5 -24t-30.5 -61q0 -41 33.5 -63.5t132.5 -46.5
q116 -28 170.5 -75t54.5 -132q0 -97 -69 -153t-181 -56z" />
    <glyph glyph-name="T" unicode="T" horiz-adv-x="648" 
d="M262 0v586h-222v114h568v-114h-222v-586h-124z" />
    <glyph glyph-name="U" unicode="U" horiz-adv-x="757" 
d="M377 -11q-139 0 -218.5 79t-79.5 229v403h123v-398q0 -96 47 -148t130 -52t129.5 50t46.5 145v403h123v-397q0 -153 -80 -233.5t-221 -80.5z" />
    <glyph glyph-name="V" unicode="V" horiz-adv-x="750" 
d="M321 -5l-291 705h136l211 -538l210 538h133l-291 -705h-108z" />
    <glyph glyph-name="W" unicode="W" horiz-adv-x="1116" 
d="M280 -5l-244 705h133l167 -519l172 521h104l172 -521l167 519h129l-244 -705h-106l-172 503l-172 -503h-106z" />
    <glyph glyph-name="X" unicode="X" horiz-adv-x="729" 
d="M37 0l255 356l-245 344h145l174 -251l175 251h141l-244 -342l254 -358h-145l-184 265l-185 -265h-141z" />
    <glyph glyph-name="Y" unicode="Y" horiz-adv-x="716" 
d="M296 0v276l-278 424h145l196 -310l198 310h141l-278 -421v-279h-124z" />
    <glyph glyph-name="Z" unicode="Z" horiz-adv-x="702" 
d="M65 0v91l413 500h-400v109h560v-91l-413 -500h413v-109h-573z" />
    <glyph glyph-name="bracketleft" unicode="[" horiz-adv-x="454" 
d="M88 -130v830h307v-95h-192v-640h192v-95h-307z" />
    <glyph glyph-name="backslash" unicode="\" horiz-adv-x="521" 
d="M441 -128l-452 926h105l452 -926h-105z" />
    <glyph glyph-name="bracketright" unicode="]" horiz-adv-x="454" 
d="M59 -130v95h192v640h-192v95h308v-830h-308z" />
    <glyph glyph-name="asciicircum" unicode="^" 
d="M56 493l151 208h86l151 -208h-93l-102 132l-102 -132h-91z" />
    <glyph glyph-name="underscore" unicode="_" horiz-adv-x="600" 
d="M-2 -160v94h604v-94h-604z" />
    <glyph glyph-name="grave" unicode="`" 
d="M246 595l-122 115l110 49l106 -164h-94z" />
    <glyph glyph-name="a" unicode="a" horiz-adv-x="587" 
d="M519 0h-120v65q-64 -76 -171 -76q-79 0 -133.5 43.5t-54.5 121.5q0 85 59 129t155 44q77 0 146 -22v10q0 55 -33.5 84t-96.5 29q-72 0 -151 -33l-33 97q98 44 201 44q115 0 173.5 -58t58.5 -165v-313zM402 191v30q-54 21 -121 21q-57 0 -89 -22t-32 -62q0 -36 29 -57
t73 -21q61 0 100.5 31t39.5 80z" />
    <glyph glyph-name="b" unicode="b" horiz-adv-x="670" 
d="M376 -11q-109 0 -179 93v-82h-121v730h121v-290q70 99 179 99q100 0 173 -74.5t73 -201.5q0 -125 -73 -199.5t-173 -74.5zM348 94q64 0 107.5 47t43.5 124q0 75 -44 122t-107 47t-108.5 -48t-45.5 -123q0 -74 45.5 -121.5t108.5 -47.5z" />
    <glyph glyph-name="c" unicode="c" horiz-adv-x="571" 
d="M320 -12q-117 0 -195 80t-78 195q0 114 78.5 195t195.5 81q128 0 211 -91l-75 -81q-63 66 -137 66q-65 0 -108.5 -49.5t-43.5 -120.5q0 -72 44.5 -121t113.5 -49q73 0 137 66l73 -72q-43 -48 -93.5 -73.5t-122.5 -25.5z" />
    <glyph glyph-name="d" unicode="d" horiz-adv-x="670" 
d="M294 -11q-99 0 -172 74.5t-73 201.5q0 126 72.5 200t172.5 74q108 0 180 -93v284h121v-730h-121v88q-70 -99 -180 -99zM323 94q63 0 108 48t45 123q0 74 -45 121.5t-108 47.5q-64 0 -108 -46.5t-44 -124.5q0 -75 44.5 -122t107.5 -47z" />
    <glyph glyph-name="e" unicode="e" horiz-adv-x="604" 
d="M318 -12q-116 0 -193.5 77t-77.5 199q0 115 73 195t185 80q120 0 186.5 -81.5t66.5 -202.5q0 -22 -2 -34h-388q10 -63 51 -98.5t101 -35.5q78 0 143 63l71 -63q-82 -99 -216 -99zM167 301h271q-6 61 -41 100t-93 39q-55 0 -92 -38.5t-45 -100.5z" />
    <glyph glyph-name="f" unicode="f" horiz-adv-x="376" 
d="M103 0v424h-67v101h67v38q0 88 43 131q42 42 119 42q51 0 98 -14v-102q-39 13 -71 13q-70 0 -70 -80v-29h140v-100h-138v-424h-121z" />
    <glyph glyph-name="g" unicode="g" horiz-adv-x="670" 
d="M311 -162q-132 0 -236 63l45 91q90 -56 188 -56q81 0 124 41.5t43 120.5v41q-75 -97 -186 -97q-98 0 -169 68t-71 181q0 112 71.5 180t168.5 68q110 0 185 -90v79h121v-420q0 -132 -67 -199q-71 -71 -217 -71zM321 144q64 0 109.5 41.5t45.5 105.5t-45.5 105t-109.5 41
t-107 -40.5t-43 -106.5q0 -64 43.5 -105t106.5 -41z" />
    <glyph glyph-name="h" unicode="h" horiz-adv-x="620" 
d="M76 0v730h121v-284q63 93 165 93q88 0 138 -55t50 -148v-336h-121v300q0 62 -29.5 95.5t-83.5 33.5q-53 0 -86 -35t-33 -96v-298h-121z" />
    <glyph glyph-name="i" unicode="i" horiz-adv-x="286" 
d="M78 609v115h130v-115h-130zM83 0v528h121v-528h-121z" />
    <glyph glyph-name="j" unicode="j" horiz-adv-x="286" 
d="M78 609v115h130v-115h-130zM50 -163q-26 0 -58 5v97q18 -3 34 -3q57 0 57 64v528h121v-535q0 -156 -154 -156z" />
    <glyph glyph-name="k" unicode="k" horiz-adv-x="582" 
d="M76 0v730h121v-436l219 234h147l-210 -215l217 -313h-140l-159 228l-74 -77v-151h-121z" />
    <glyph glyph-name="l" unicode="l" horiz-adv-x="286" 
d="M83 0v730h121v-730h-121z" />
    <glyph glyph-name="m" unicode="m" horiz-adv-x="950" 
d="M76 0v528h121v-80q66 91 161 91q110 0 157 -93q71 93 179 93q87 0 136 -53t49 -149v-337h-121v300q0 63 -28 96t-79 33t-82 -34.5t-31 -96.5v-298h-121v301q0 61 -28 94.5t-79 33.5t-82 -35.5t-31 -96.5v-297h-121z" />
    <glyph glyph-name="n" unicode="n" horiz-adv-x="620" 
d="M76 0v528h121v-82q63 93 165 93q88 0 138 -55t50 -148v-336h-121v300q0 62 -29.5 95.5t-83.5 33.5q-53 0 -86 -35t-33 -96v-298h-121z" />
    <glyph glyph-name="o" unicode="o" horiz-adv-x="657" 
d="M327 -12q-120 0 -200 80t-80 195t81 195.5t201 80.5t200.5 -80t80.5 -196q0 -114 -81 -194.5t-202 -80.5zM329 93q72 0 116 49t44 121q0 71 -46 120.5t-116 49.5q-71 0 -115 -49t-44 -121q0 -70 46 -120t115 -50z" />
    <glyph glyph-name="p" unicode="p" horiz-adv-x="670" 
d="M76 -160v688h121v-88q70 99 179 99q100 0 173 -74.5t73 -201.5q0 -125 -73 -199.5t-173 -74.5q-109 0 -179 93v-242h-121zM348 94q64 0 107.5 47t43.5 124q0 75 -44 122t-107 47t-108.5 -48t-45.5 -123q0 -74 45.5 -121.5t108.5 -47.5z" />
    <glyph glyph-name="q" unicode="q" horiz-adv-x="670" 
d="M474 -160v248q-70 -99 -180 -99q-99 0 -172 74.5t-73 201.5q0 126 72.5 200t172.5 74q108 0 180 -93v82h121v-688h-121zM323 94q63 0 108 48t45 123q0 74 -45 121.5t-108 47.5q-64 0 -108 -46.5t-44 -124.5q0 -75 44.5 -122t107.5 -47z" />
    <glyph glyph-name="r" unicode="r" horiz-adv-x="413" 
d="M76 0v528h121v-119q56 135 187 129v-128h-7q-82 0 -131 -53.5t-49 -155.5v-201h-121z" />
    <glyph glyph-name="s" unicode="s" 
d="M257 -10q-124 0 -224 79l54 82q86 -65 173 -65q39 0 60.5 15.5t21.5 43.5q0 14 -7.5 24.5t-26.5 19.5t-32 13t-43 13l-9 3q-28 8 -47.5 15.5t-43.5 20.5t-39 28.5t-25 39.5t-10 54q0 73 53.5 117t134.5 44q103 0 194 -60l-48 -86q-82 50 -149 50q-35 0 -54.5 -15
t-19.5 -40q0 -17 17.5 -31t35 -20.5t56.5 -19.5q2 -1 5 -2t5 -1q35 -11 59 -21.5t50.5 -28.5t40.5 -44.5t14 -61.5q0 -80 -55 -123t-141 -43z" />
    <glyph glyph-name="t" unicode="t" horiz-adv-x="410" 
d="M253 -9q-152 0 -152 155v278h-67v104h67v145h121v-145h142v-104h-142v-259q0 -66 65 -66q39 0 75 18v-99q-48 -27 -109 -27z" />
    <glyph glyph-name="u" unicode="u" horiz-adv-x="620" 
d="M258 -11q-88 0 -138 55t-50 148v336h121v-300q0 -62 29.5 -95.5t83.5 -33.5q53 0 86 35t33 96v298h121v-528h-121v82q-63 -93 -165 -93z" />
    <glyph glyph-name="v" unicode="v" horiz-adv-x="595" 
d="M243 -4l-217 532h130l142 -388l143 388h127l-216 -532h-109z" />
    <glyph glyph-name="w" unicode="w" horiz-adv-x="861" 
d="M203 -4l-171 532h124l106 -362l117 364h103l118 -364l108 362h121l-173 -532h-108l-118 361l-119 -361h-108z" />
    <glyph glyph-name="x" unicode="x" horiz-adv-x="580" 
d="M30 0l194 268l-187 260h132l122 -174l122 174h129l-187 -257l195 -271h-132l-130 185l-129 -185h-129z" />
    <glyph glyph-name="y" unicode="y" horiz-adv-x="596" 
d="M184 -163q-66 0 -125 32l41 90q37 -20 71 -20q26 0 43 13.5t32 47.5l-220 528h129l150 -392l137 392h126l-210 -543q-32 -81 -71 -114.5t-103 -33.5z" />
    <glyph glyph-name="z" unicode="z" horiz-adv-x="560" 
d="M52 0v83l305 346h-294v99h448v-83l-305 -346h305v-99h-459z" />
    <glyph glyph-name="braceleft" unicode="{" horiz-adv-x="487" 
d="M416 -141q-130 24 -178.5 71t-48.5 129q0 7 1 35t1 37q0 59 -25.5 84.5t-87.5 25.5h-26v92h26q62 0 87.5 25.5t25.5 84.5q0 9 -1 37t-1 35q0 82 48.5 129t178.5 71l21 -80q-86 -24 -111 -51.5t-25 -85.5q0 -10 1 -36.5t1 -37.5q0 -56 -26 -88t-78 -49q53 -17 78.5 -49
t25.5 -88q0 -11 -1 -37.5t-1 -36.5q0 -58 25 -85.5t111 -51.5z" />
    <glyph glyph-name="bar" unicode="|" horiz-adv-x="331" 
d="M117 -128v926h97v-926h-97z" />
    <glyph glyph-name="braceright" unicode="}" horiz-adv-x="487" 
d="M71 -141l-21 80q86 24 111 51.5t25 85.5q0 10 -1 36.5t-1 37.5q0 56 26 88t78 49q-53 17 -78.5 49t-25.5 88q0 11 1 37.5t1 36.5q0 58 -25 85.5t-111 51.5l21 80q130 -24 178.5 -71t48.5 -129q0 -7 -1 -35t-1 -37q0 -59 25.5 -84.5t87.5 -25.5h26v-92h-26
q-62 0 -87.5 -25.5t-25.5 -84.5q0 -9 1 -37t1 -35q0 -82 -48.5 -129t-178.5 -71z" />
    <glyph glyph-name="asciitilde" unicode="~" horiz-adv-x="495" 
d="M126 229l-67 21q17 64 42.5 94t69.5 30q30 0 79 -20t64 -20q21 0 32.5 11.5t22.5 38.5l67 -20q-17 -64 -42.5 -94.5t-69.5 -30.5q-30 0 -79 20t-64 20q-21 0 -32.5 -11.5t-22.5 -38.5z" />
    <glyph glyph-name="nbspace" unicode="&#xa0;" horiz-adv-x="300" 
 />
    <glyph glyph-name="exclamdown" unicode="&#xa1;" horiz-adv-x="302" 
d="M85 563v137h133v-137h-133zM80 0v35l38 444h67l37 -444v-35h-142z" />
    <glyph glyph-name="cent" unicode="&#xa2;" horiz-adv-x="581" 
d="M210 -6l20 102q-79 28 -128.5 99t-49.5 160q0 115 78 195t195 80h9l15 76h88l-18 -89q65 -20 118 -78l-73 -78q-35 35 -69 50l-65 -326q73 1 138 65l70 -69q-89 -101 -217 -101h-6l-17 -86h-88zM255 202l63 323q-63 -1 -105.5 -50t-42.5 -120q0 -50 22.5 -91t62.5 -62z
" />
    <glyph glyph-name="sterling" unicode="&#xa3;" horiz-adv-x="644" 
d="M63 0v78l79 24v176h-79v104h79v92q0 110 60.5 173t169.5 63q136 0 221 -112l-94 -75q-29 37 -57.5 55t-68.5 18q-49 0 -78 -33.5t-29 -91.5v-89h249v-104h-249v-171h325v-107h-528z" />
    <glyph glyph-name="currency" unicode="&#xa4;" horiz-adv-x="720" 
d="M434 -12q-109 0 -185.5 64.5t-105.5 172.5h-91v85h77q-1 13 -1 40q0 31 2 45h-78v85h94q31 104 106 168t178 64q85 0 142.5 -34.5t101.5 -97.5l-93 -69q-34 47 -69 69t-85 22q-52 0 -92.5 -32.5t-61.5 -89.5h215v-85h-234q-2 -26 -2 -45q0 -14 2 -40h234v-85h-216
q21 -59 63 -93t100 -34q47 0 81 23t72 72l88 -64q-47 -68 -104.5 -104.5t-137.5 -36.5z" />
    <glyph glyph-name="yen" unicode="&#xa5;" horiz-adv-x="686" 
d="M284 0v102h-193v89h193v73h-193v89h159l-231 347h143l183 -293l183 293h139l-232 -347h160v-89h-193v-73h193v-89h-193v-102h-118z" />
    <glyph glyph-name="brokenbar" unicode="&#xa6;" horiz-adv-x="222" 
d="M53 -89v250h114v-250h-114zM53 411v250h114v-250h-114z" />
    <glyph glyph-name="section" unicode="&#xa7;" horiz-adv-x="632" 
d="M326 -10q-141 0 -231 95l69 68q76 -71 161 -71q81 0 81 51q0 22 -28 37.5t-104 32.5q-117 27 -166.5 60t-49.5 88q0 88 107 116q-55 35 -55 97q0 67 52.5 106.5t143.5 39.5q141 0 231 -95l-69 -68q-76 71 -161 71q-39 0 -60 -13.5t-21 -37.5q0 -21 27 -36.5t105 -33.5
q118 -27 167 -59.5t49 -88.5q0 -88 -107 -116q55 -33 55 -97q0 -67 -52.5 -106.5t-143.5 -39.5zM388 278q34 0 55.5 15.5t21.5 40.5q0 22 -27 38t-90 32q-71 18 -104 18q-34 0 -55.5 -15.5t-21.5 -40.5q0 -22 27 -38t90 -32q71 -18 104 -18z" />
    <glyph glyph-name="dieresis" unicode="&#xa8;" 
d="M288 595v118h123v-118h-123zM89 595v118h123v-118h-123z" />
    <glyph glyph-name="copyright" unicode="&#xa9;" horiz-adv-x="830" 
d="M414 -12q-151 0 -256 106t-105 256q0 149 106 255.5t257 106.5t256 -106t105 -256q0 -149 -106 -255.5t-257 -106.5zM414 24q138 0 231.5 95.5t93.5 232.5q0 135 -93 229.5t-230 94.5q-138 0 -231.5 -95.5t-93.5 -232.5q0 -135 93 -229.5t230 -94.5zM419 159
q-82 0 -137 56.5t-55 139.5q0 82 55 139t139 57q88 0 149 -59l-47 -54q-50 45 -102 45q-51 0 -84.5 -37.5t-33.5 -91.5q0 -52 34 -89.5t84 -37.5q54 0 104 47l48 -47q-65 -68 -154 -68z" />
    <glyph glyph-name="ordfeminine" unicode="&#xaa;" horiz-adv-x="390" 
d="M159 403q-44 0 -73.5 24t-29.5 68q0 45 33 69t87 24q36 0 76 -11v5q0 61 -70 61q-35 0 -83 -19l-19 54q53 25 111 25q128 0 128 -122v-172h-68v34q-35 -40 -92 -40zM53 282v58h270v-58h-270zM177 454q32 0 53.5 17t21.5 43v18q-31 11 -63 11q-64 0 -64 -47
q0 -19 14.5 -30.5t37.5 -11.5z" />
    <glyph glyph-name="guillemotleft" unicode="&#xab;" horiz-adv-x="606" 
d="M461 41l-165 219v8l165 220l92 -47l-132 -176l132 -177zM210 41l-166 219v8l166 220l92 -47l-132 -176l132 -177z" />
    <glyph glyph-name="logicalnot" unicode="&#xac;" horiz-adv-x="640" 
d="M441 246v173h-359v111h473v-284h-114z" />
    <glyph glyph-name="uni00AD" unicode="&#xad;" horiz-adv-x="408" 
d="M56 247v119h296v-119h-296z" />
    <glyph glyph-name="registered" unicode="&#xae;" horiz-adv-x="830" 
d="M414 -12q-151 0 -256 106t-105 256q0 149 106 255.5t257 106.5t256 -106t105 -256q0 -149 -106 -255.5t-257 -106.5zM414 24q138 0 231.5 95.5t93.5 232.5q0 135 -93 229.5t-230 94.5q-138 0 -231.5 -95.5t-93.5 -232.5q0 -135 93 -229.5t230 -94.5zM269 171v379h169
q74 0 115 -41q31 -29 31 -81q0 -44 -23.5 -73t-64.5 -41l102 -143h-86l-94 131h-77v-131h-72zM341 365h94q35 0 55 16t20 45q0 28 -20 43.5t-55 15.5h-94v-120z" />
    <glyph glyph-name="macron" unicode="&#xaf;" 
d="M79 600v89h342v-89h-342z" />
    <glyph glyph-name="degree" unicode="&#xb0;" horiz-adv-x="471" 
d="M235 381q-66 0 -116 48.5t-50 113.5v2q0 65 50 113t116 48t116.5 -48t50.5 -113v-2q0 -65 -50.5 -113.5t-116.5 -48.5zM235 447q40 0 67.5 28.5t27.5 67.5v2q0 39 -27 67t-68 28q-40 0 -67 -28t-27 -67v-2q0 -39 27 -67.5t67 -28.5z" />
    <glyph glyph-name="plusminus" unicode="&#xb1;" horiz-adv-x="640" 
d="M75 16v104h490v-104h-490zM263 176v153h-194v109h194v152h114v-152h192v-109h-192v-153h-114z" />
    <glyph glyph-name="twosuperior" unicode="&#xb2;" 
d="M0 0v700h500v-700h-500zM81 49h339l-170 255zM49 96l171 254l-171 254v-508zM450 96v508l-171 -254zM250 395l170 255h-339z" />
    <glyph glyph-name="threesuperior" unicode="&#xb3;" 
d="M0 0v700h500v-700h-500zM81 49h339l-170 255zM49 96l171 254l-171 254v-508zM450 96v508l-171 -254zM250 395l170 255h-339z" />
    <glyph glyph-name="acute" unicode="&#xb4;" 
d="M160 595l106 164l110 -49l-122 -115h-94z" />
    <glyph glyph-name="mu" unicode="&#xb5;" horiz-adv-x="628" 
d="M75 -160v688h121v-302q0 -55 32 -93t81 -38q54 0 88 37.5t34 98.5v297h121v-528h-121v83q-54 -89 -152 -89q-58 0 -83 36v-190h-121z" />
    <glyph glyph-name="paragraph" unicode="&#xb6;" horiz-adv-x="557" 
d="M346 0v244h-18q-128 0 -208 59.5t-80 169.5q0 105 74.5 166t196.5 61h159v-700h-124z" />
    <glyph glyph-name="periodcentered" unicode="&#xb7;" horiz-adv-x="269" 
d="M68 238v137h133v-137h-133z" />
    <glyph glyph-name="cedilla" unicode="&#xb8;" 
d="M237 -165l-106 44l90 131h91z" />
    <glyph glyph-name="onesuperior" unicode="&#xb9;" 
d="M0 0v700h500v-700h-500zM81 49h339l-170 255zM49 96l171 254l-171 254v-508zM450 96v508l-171 -254zM250 395l170 255h-339z" />
    <glyph glyph-name="ordmasculine" unicode="&#xba;" horiz-adv-x="390" 
d="M194 402q-64 0 -107 44t-43 108q0 63 43.5 107t108.5 44q64 0 107 -44t43 -108q0 -63 -43.5 -107t-108.5 -44zM51 282v58h288v-58h-288zM196 464q36 0 58 26t22 64q0 37 -23.5 63t-58.5 26q-36 0 -58 -26t-22 -64q0 -37 23.5 -63t58.5 -26z" />
    <glyph glyph-name="guillemotright" unicode="&#xbb;" horiz-adv-x="606" 
d="M396 41l-92 46l132 176l-132 177l92 48l166 -220v-8zM145 41l-92 46l132 176l-132 177l92 48l165 -220v-8z" />
    <glyph glyph-name="onequarter" unicode="&#xbc;" 
d="M0 0v700h500v-700h-500zM81 49h339l-170 255zM49 96l171 254l-171 254v-508zM450 96v508l-171 -254zM250 395l170 255h-339z" />
    <glyph glyph-name="onehalf" unicode="&#xbd;" 
d="M0 0v700h500v-700h-500zM81 49h339l-170 255zM49 96l171 254l-171 254v-508zM450 96v508l-171 -254zM250 395l170 255h-339z" />
    <glyph glyph-name="threequarters" unicode="&#xbe;" 
d="M0 0v700h500v-700h-500zM81 49h339l-170 255zM49 96l171 254l-171 254v-508zM450 96v508l-171 -254zM250 395l170 255h-339z" />
    <glyph glyph-name="questiondown" unicode="&#xbf;" horiz-adv-x="541" 
d="M229 563v137h134v-137h-134zM276 -9q-106 0 -170 55.5t-64 149.5q0 89 55 137.5t146 64.5l10 81h81l20 -162l-5 -5q-185 -7 -185 -114q0 -43 31 -69t84 -26q89 0 163 79l75 -80q-98 -111 -241 -111z" />
    <glyph glyph-name="Agrave" unicode="&#xc0;" horiz-adv-x="790" 
d="M30 0l308 705h114l308 -705h-130l-71 169h-331l-72 -169h-126zM273 278h241l-121 280zM351 758l-122 115l110 49l106 -164h-94z" />
    <glyph glyph-name="Aacute" unicode="&#xc1;" horiz-adv-x="790" 
d="M30 0l308 705h114l308 -705h-130l-71 169h-331l-72 -169h-126zM273 278h241l-121 280zM345 758l106 164l110 -49l-122 -115h-94z" />
    <glyph glyph-name="Acircumflex" unicode="&#xc2;" horiz-adv-x="790" 
d="M30 0l308 705h114l308 -705h-130l-71 169h-331l-72 -169h-126zM273 278h241l-121 280zM223 757l116 146h112l116 -146h-96l-77 67l-77 -67h-94z" />
    <glyph glyph-name="Atilde" unicode="&#xc3;" horiz-adv-x="790" 
d="M30 0l308 705h114l308 -705h-130l-71 169h-331l-72 -169h-126zM273 278h241l-121 280zM273 748l-67 20q17 64 42.5 94.5t69.5 30.5q30 0 79 -20t65 -20q20 0 31.5 11t23.5 39l67 -21q-17 -64 -42.5 -94t-69.5 -30q-30 0 -79 20t-65 20q-20 0 -31.5 -11t-23.5 -39z" />
    <glyph glyph-name="Adieresis" unicode="&#xc4;" horiz-adv-x="790" 
d="M30 0l308 705h114l308 -705h-130l-71 169h-331l-72 -169h-126zM273 278h241l-121 280zM433 758v118h123v-118h-123zM234 758v118h123v-118h-123z" />
    <glyph glyph-name="Aring" unicode="&#xc5;" horiz-adv-x="790" 
d="M30 0l298 684q-47 35 -47 89q0 44 34.5 76.5t79.5 32.5t79.5 -33t34.5 -78q0 -52 -47 -87l298 -684h-130l-71 169h-331l-72 -169h-126zM395 710q26 0 44 18.5t18 44.5q0 25 -18.5 43t-43.5 18q-26 0 -44 -18.5t-18 -44.5q0 -25 18.5 -43t43.5 -18zM273 278h241l-121 280z
" />
    <glyph glyph-name="AE" unicode="&#xc6;" horiz-adv-x="1045" 
d="M12 0l391 700h581v-110h-374v-182h329v-110h-329v-188h379v-110h-502v169h-255l-93 -169h-127zM291 278h196v315h-20z" />
    <glyph glyph-name="Ccedilla" unicode="&#xc7;" horiz-adv-x="738" 
d="M371 -165l-105 44l79 116q-126 23 -206 122t-80 233q0 152 102 257t259 105q91 0 154.5 -28t119.5 -81l-79 -91q-94 87 -196 87q-100 0 -165.5 -72t-65.5 -177q0 -104 66 -176.5t165 -72.5q60 0 106 22.5t95 68.5l79 -80q-55 -58 -116.5 -88.5t-145.5 -34.5z" />
    <glyph glyph-name="Egrave" unicode="&#xc8;" horiz-adv-x="670" 
d="M90 0v700h519v-110h-396v-182h351v-110h-351v-188h401v-110h-524zM327 758l-122 115l110 49l106 -164h-94z" />
    <glyph glyph-name="Eacute" unicode="&#xc9;" horiz-adv-x="670" 
d="M90 0v700h519v-110h-396v-182h351v-110h-351v-188h401v-110h-524zM277 758l106 164l110 -49l-122 -115h-94z" />
    <glyph glyph-name="Ecircumflex" unicode="&#xca;" horiz-adv-x="670" 
d="M90 0v700h519v-110h-396v-182h351v-110h-351v-188h401v-110h-524zM175 758l116 146h112l116 -146h-96l-77 67l-77 -67h-94z" />
    <glyph glyph-name="Edieresis" unicode="&#xcb;" horiz-adv-x="670" 
d="M90 0v700h519v-110h-396v-182h351v-110h-351v-188h401v-110h-524zM385 758v118h123v-118h-123zM186 758v118h123v-118h-123z" />
    <glyph glyph-name="Igrave" unicode="&#xcc;" horiz-adv-x="317" 
d="M97 0v700h123v-700h-123zM116 758l-122 115l110 49l106 -164h-94z" />
    <glyph glyph-name="Iacute" unicode="&#xcd;" horiz-adv-x="317" 
d="M97 0v700h123v-700h-123zM108 758l106 164l110 -49l-122 -115h-94z" />
    <glyph glyph-name="Icircumflex" unicode="&#xce;" horiz-adv-x="317" 
d="M97 0v700h123v-700h-123zM-13 758l116 146h112l116 -146h-96l-77 67l-77 -67h-94z" />
    <glyph glyph-name="Idieresis" unicode="&#xcf;" horiz-adv-x="317" 
d="M97 0v700h123v-700h-123zM197 758v118h123v-118h-123zM-2 758v118h123v-118h-123z" />
    <glyph glyph-name="Eth" unicode="&#xd0;" horiz-adv-x="812" 
d="M120 0v297h-75v110h75v293h261q164 0 268 -99.5t104 -250.5q0 -150 -104.5 -250t-267.5 -100h-261zM242 112h139q109 0 176 66.5t67 171.5q0 104 -67 171t-176 67h-139v-181h176v-110h-176v-185z" />
    <glyph glyph-name="Ntilde" unicode="&#xd1;" horiz-adv-x="790" 
d="M90 0v700h114l375 -484v484h121v-700h-103l-386 498v-498h-121zM273 748l-67 20q17 64 42.5 94.5t69.5 30.5q30 0 79 -20t65 -20q20 0 31.5 11t23.5 39l67 -21q-17 -64 -42.5 -94t-69.5 -30q-30 0 -79 20t-65 20q-20 0 -31.5 -11t-23.5 -39z" />
    <glyph glyph-name="Ograve" unicode="&#xd2;" horiz-adv-x="850" 
d="M424 -12q-159 0 -262 105t-103 257q0 150 104 256t263 106t262 -105t103 -257q0 -150 -104 -256t-263 -106zM426 101q103 0 169.5 72t66.5 177q0 104 -67.5 176.5t-170.5 72.5t-169.5 -72t-66.5 -177q0 -104 67.5 -176.5t170.5 -72.5zM374 758l-122 115l110 49l106 -164
h-94z" />
    <glyph glyph-name="Oacute" unicode="&#xd3;" horiz-adv-x="850" 
d="M424 -12q-159 0 -262 105t-103 257q0 150 104 256t263 106t262 -105t103 -257q0 -150 -104 -256t-263 -106zM426 101q103 0 169.5 72t66.5 177q0 104 -67.5 176.5t-170.5 72.5t-169.5 -72t-66.5 -177q0 -104 67.5 -176.5t170.5 -72.5zM382 758l106 164l110 -49l-122 -115
h-94z" />
    <glyph glyph-name="Ocircumflex" unicode="&#xd4;" horiz-adv-x="850" 
d="M424 -12q-159 0 -262 105t-103 257q0 150 104 256t263 106t262 -105t103 -257q0 -150 -104 -256t-263 -106zM426 101q103 0 169.5 72t66.5 177q0 104 -67.5 176.5t-170.5 72.5t-169.5 -72t-66.5 -177q0 -104 67.5 -176.5t170.5 -72.5zM253 758l116 146h112l116 -146h-96
l-77 67l-77 -67h-94z" />
    <glyph glyph-name="Otilde" unicode="&#xd5;" horiz-adv-x="850" 
d="M424 -12q-159 0 -262 105t-103 257q0 150 104 256t263 106t262 -105t103 -257q0 -150 -104 -256t-263 -106zM426 101q103 0 169.5 72t66.5 177q0 104 -67.5 176.5t-170.5 72.5t-169.5 -72t-66.5 -177q0 -104 67.5 -176.5t170.5 -72.5zM303 748l-67 20q17 64 42.5 94.5
t69.5 30.5q30 0 79 -20t65 -20q20 0 31.5 11t23.5 39l67 -21q-17 -64 -42.5 -94t-69.5 -30q-30 0 -79 20t-65 20q-20 0 -31.5 -11t-23.5 -39z" />
    <glyph glyph-name="Odieresis" unicode="&#xd6;" horiz-adv-x="850" 
d="M424 -12q-159 0 -262 105t-103 257q0 150 104 256t263 106t262 -105t103 -257q0 -150 -104 -256t-263 -106zM426 101q103 0 169.5 72t66.5 177q0 104 -67.5 176.5t-170.5 72.5t-169.5 -72t-66.5 -177q0 -104 67.5 -176.5t170.5 -72.5zM463 758v118h123v-118h-123z
M264 758v118h123v-118h-123z" />
    <glyph glyph-name="multiply" unicode="&#xd7;" horiz-adv-x="640" 
d="M145 91l-79 78l174 175l-174 174l79 79l174 -175l174 175l79 -79l-175 -174l175 -175l-79 -78l-174 174z" />
    <glyph glyph-name="Oslash" unicode="&#xd8;" horiz-adv-x="850" 
d="M424 -12q-114 0 -204 60l-48 -53h-121l99 111q-91 100 -91 244q0 150 104 256t263 106q114 0 204 -60l48 53h121l-99 -112q91 -99 91 -243q0 -150 -104 -256t-263 -106zM232 201l320 360q-56 40 -128 40q-103 0 -170.5 -72.5t-67.5 -178.5q0 -85 46 -149zM426 99
q103 0 170.5 72.5t67.5 178.5q0 85 -46 149l-320 -360q56 -40 128 -40z" />
    <glyph glyph-name="Ugrave" unicode="&#xd9;" horiz-adv-x="757" 
d="M377 -11q-139 0 -218.5 79t-79.5 229v403h123v-398q0 -96 47 -148t130 -52t129.5 50t46.5 145v403h123v-397q0 -153 -80 -233.5t-221 -80.5zM341 753l-122 115l110 49l106 -164h-94z" />
    <glyph glyph-name="Uacute" unicode="&#xda;" horiz-adv-x="757" 
d="M377 -11q-139 0 -218.5 79t-79.5 229v403h123v-398q0 -96 47 -148t130 -52t129.5 50t46.5 145v403h123v-397q0 -153 -80 -233.5t-221 -80.5zM322 753l106 164l110 -49l-122 -115h-94z" />
    <glyph glyph-name="Ucircumflex" unicode="&#xdb;" horiz-adv-x="757" 
d="M377 -11q-139 0 -218.5 79t-79.5 229v403h123v-398q0 -96 47 -148t130 -52t129.5 50t46.5 145v403h123v-397q0 -153 -80 -233.5t-221 -80.5zM207 757l116 146h112l116 -146h-96l-77 67l-77 -67h-94z" />
    <glyph glyph-name="Udieresis" unicode="&#xdc;" horiz-adv-x="757" 
d="M377 -11q-139 0 -218.5 79t-79.5 229v403h123v-398q0 -96 47 -148t130 -52t129.5 50t46.5 145v403h123v-397q0 -153 -80 -233.5t-221 -80.5zM417 757v118h123v-118h-123zM218 757v118h123v-118h-123z" />
    <glyph glyph-name="Yacute" unicode="&#xdd;" horiz-adv-x="716" 
d="M296 0v276l-278 424h145l196 -310l198 310h141l-278 -421v-279h-124zM311 753l106 164l110 -49l-122 -115h-94z" />
    <glyph glyph-name="Thorn" unicode="&#xde;" horiz-adv-x="673" 
d="M90 0v700h123v-110h153q122 0 194 -64t72 -171q0 -114 -79.5 -176.5t-200.5 -62.5h-139v-116h-123zM213 226h143q69 0 110 35.5t41 92.5q0 60 -40.5 92.5t-110.5 32.5h-143v-253z" />
    <glyph glyph-name="germandbls" unicode="&#xdf;" horiz-adv-x="620" 
d="M296 -2v93q74 2 114 30t40 80q0 47 -41.5 76t-112.5 38v82q113 55 113 141q0 43 -27.5 69.5t-73.5 26.5q-50 0 -81 -35t-31 -93v-506h-120v502q0 109 64 172t174 63q99 0 157 -53.5t58 -136.5q0 -110 -110 -171q152 -51 152 -180q0 -93 -69.5 -145.5t-189.5 -52.5h-16z
" />
    <glyph glyph-name="agrave" unicode="&#xe0;" horiz-adv-x="587" 
d="M519 0h-120v65q-64 -76 -171 -76q-79 0 -133.5 43.5t-54.5 121.5q0 85 59 129t155 44q77 0 146 -22v10q0 55 -33.5 84t-96.5 29q-72 0 -151 -33l-33 97q98 44 201 44q115 0 173.5 -58t58.5 -165v-313zM402 191v30q-54 21 -121 21q-57 0 -89 -22t-32 -62q0 -36 29 -57
t73 -21q61 0 100.5 31t39.5 80zM257 595l-122 115l110 49l106 -164h-94z" />
    <glyph glyph-name="aacute" unicode="&#xe1;" horiz-adv-x="587" 
d="M519 0h-120v65q-64 -76 -171 -76q-79 0 -133.5 43.5t-54.5 121.5q0 85 59 129t155 44q77 0 146 -22v10q0 55 -33.5 84t-96.5 29q-72 0 -151 -33l-33 97q98 44 201 44q115 0 173.5 -58t58.5 -165v-313zM402 191v30q-54 21 -121 21q-57 0 -89 -22t-32 -62q0 -36 29 -57
t73 -21q61 0 100.5 31t39.5 80zM235 595l106 164l110 -49l-122 -115h-94z" />
    <glyph glyph-name="acircumflex" unicode="&#xe2;" horiz-adv-x="587" 
d="M519 0h-120v65q-64 -76 -171 -76q-79 0 -133.5 43.5t-54.5 121.5q0 85 59 129t155 44q77 0 146 -22v10q0 55 -33.5 84t-96.5 29q-72 0 -151 -33l-33 97q98 44 201 44q115 0 173.5 -58t58.5 -165v-313zM402 191v30q-54 21 -121 21q-57 0 -89 -22t-32 -62q0 -36 29 -57
t73 -21q61 0 100.5 31t39.5 80zM121 595l116 146h112l116 -146h-96l-77 67l-77 -67h-94z" />
    <glyph glyph-name="atilde" unicode="&#xe3;" horiz-adv-x="587" 
d="M519 0h-120v65q-64 -76 -171 -76q-79 0 -133.5 43.5t-54.5 121.5q0 85 59 129t155 44q77 0 146 -22v10q0 55 -33.5 84t-96.5 29q-72 0 -151 -33l-33 97q98 44 201 44q115 0 173.5 -58t58.5 -165v-313zM402 191v30q-54 21 -121 21q-57 0 -89 -22t-32 -62q0 -36 29 -57
t73 -21q61 0 100.5 31t39.5 80zM172 585l-67 20q17 64 42.5 94.5t69.5 30.5q30 0 79 -20t65 -20q21 0 32 11t23 39l67 -21q-17 -64 -42.5 -94t-69.5 -30q-30 0 -79 20t-65 20q-21 0 -32 -11t-23 -39z" />
    <glyph glyph-name="adieresis" unicode="&#xe4;" horiz-adv-x="587" 
d="M519 0h-120v65q-64 -76 -171 -76q-79 0 -133.5 43.5t-54.5 121.5q0 85 59 129t155 44q77 0 146 -22v10q0 55 -33.5 84t-96.5 29q-72 0 -151 -33l-33 97q98 44 201 44q115 0 173.5 -58t58.5 -165v-313zM402 191v30q-54 21 -121 21q-57 0 -89 -22t-32 -62q0 -36 29 -57
t73 -21q61 0 100.5 31t39.5 80zM331 595v118h123v-118h-123zM132 595v118h123v-118h-123z" />
    <glyph glyph-name="aring" unicode="&#xe5;" horiz-adv-x="587" 
d="M519 0h-120v65q-64 -76 -171 -76q-79 0 -133.5 43.5t-54.5 121.5q0 85 59 129t155 44q77 0 146 -22v10q0 55 -33.5 84t-96.5 29q-72 0 -151 -33l-33 97q98 44 201 44q115 0 173.5 -58t58.5 -165v-313zM402 191v30q-54 21 -121 21q-57 0 -89 -22t-32 -62q0 -36 29 -57
t73 -21q61 0 100.5 31t39.5 80zM293 593q-45 0 -79.5 33t-34.5 78q0 44 34.5 76.5t79.5 32.5t79.5 -33t34.5 -78q0 -44 -34.5 -76.5t-79.5 -32.5zM293 641q26 0 44 18.5t18 44.5q0 25 -18.5 43t-43.5 18q-26 0 -44 -18.5t-18 -44.5q0 -25 18.5 -43t43.5 -18z" />
    <glyph glyph-name="ae" unicode="&#xe6;" horiz-adv-x="952" 
d="M240 -11q-86 0 -143 43.5t-57 121.5q0 85 58.5 129t153.5 44q76 0 145 -22v10q0 113 -129 113q-70 0 -149 -33l-33 97q98 44 199 44q135 0 185 -87q69 90 185 90q118 0 184 -81.5t66 -202.5q0 -22 -1 -34h-388q10 -63 51 -98.5t100 -35.5q79 0 144 63l71 -63
q-84 -99 -217 -99q-127 0 -204 90q-107 -89 -221 -89zM514 301h272q-6 61 -41 100t-93 39q-55 0 -92.5 -38.5t-45.5 -100.5zM260 80q83 0 156 68q-15 38 -19 76q-51 18 -118 18q-56 0 -87.5 -22t-31.5 -62q0 -36 28.5 -57t71.5 -21z" />
    <glyph glyph-name="ccedilla" unicode="&#xe7;" horiz-adv-x="571" 
d="M276 -165l-106 44l80 118q-90 23 -146.5 96.5t-56.5 169.5q0 114 78.5 195t195.5 81q128 0 211 -91l-75 -81q-63 66 -137 66q-65 0 -108.5 -49.5t-43.5 -120.5q0 -72 44.5 -121t113.5 -49q73 0 137 66l73 -72q-41 -45 -86.5 -70t-108.5 -28z" />
    <glyph glyph-name="egrave" unicode="&#xe8;" horiz-adv-x="604" 
d="M318 -12q-116 0 -193.5 77t-77.5 199q0 115 73 195t185 80q120 0 186.5 -81.5t66.5 -202.5q0 -22 -2 -34h-388q10 -63 51 -98.5t101 -35.5q78 0 143 63l71 -63q-82 -99 -216 -99zM167 301h271q-6 61 -41 100t-93 39q-55 0 -92 -38.5t-45 -100.5zM261 595l-122 115l110 49
l106 -164h-94z" />
    <glyph glyph-name="eacute" unicode="&#xe9;" horiz-adv-x="604" 
d="M318 -12q-116 0 -193.5 77t-77.5 199q0 115 73 195t185 80q120 0 186.5 -81.5t66.5 -202.5q0 -22 -2 -34h-388q10 -63 51 -98.5t101 -35.5q78 0 143 63l71 -63q-82 -99 -216 -99zM167 301h271q-6 61 -41 100t-93 39q-55 0 -92 -38.5t-45 -100.5zM249 595l106 164l110 -49
l-122 -115h-94z" />
    <glyph glyph-name="ecircumflex" unicode="&#xea;" horiz-adv-x="604" 
d="M318 -12q-116 0 -193.5 77t-77.5 199q0 115 73 195t185 80q120 0 186.5 -81.5t66.5 -202.5q0 -22 -2 -34h-388q10 -63 51 -98.5t101 -35.5q78 0 143 63l71 -63q-82 -99 -216 -99zM167 301h271q-6 61 -41 100t-93 39q-55 0 -92 -38.5t-45 -100.5zM131 595l116 146h112
l116 -146h-96l-77 67l-77 -67h-94z" />
    <glyph glyph-name="edieresis" unicode="&#xeb;" horiz-adv-x="604" 
d="M318 -12q-116 0 -193.5 77t-77.5 199q0 115 73 195t185 80q120 0 186.5 -81.5t66.5 -202.5q0 -22 -2 -34h-388q10 -63 51 -98.5t101 -35.5q78 0 143 63l71 -63q-82 -99 -216 -99zM167 301h271q-6 61 -41 100t-93 39q-55 0 -92 -38.5t-45 -100.5zM341 595v118h123v-118
h-123zM142 595v118h123v-118h-123z" />
    <glyph glyph-name="igrave" unicode="&#xec;" horiz-adv-x="286" 
d="M83 0v528h121v-528h-121zM101 595l-122 115l110 49l106 -164h-94z" />
    <glyph glyph-name="iacute" unicode="&#xed;" horiz-adv-x="286" 
d="M83 0v528h121v-528h-121zM91 595l106 164l110 -49l-122 -115h-94z" />
    <glyph glyph-name="icircumflex" unicode="&#xee;" horiz-adv-x="286" 
d="M83 0v528h121v-528h-121zM-29 595l116 146h112l116 -146h-96l-77 67l-77 -67h-94z" />
    <glyph glyph-name="idieresis" unicode="&#xef;" horiz-adv-x="286" 
d="M83 0v528h121v-528h-121zM181 595v118h123v-118h-123zM-18 595v118h123v-118h-123z" />
    <glyph glyph-name="eth" unicode="&#xf0;" horiz-adv-x="642" 
d="M316 -12q-115 0 -192 76t-77 186q0 104 66.5 170t165.5 66q71 0 139 -41l-105 143l-119 -53l-48 63l121 53l-58 79h139l24 -35l99 43l47 -63l-102 -44l89 -129q46 -66 67 -122.5t21 -122.5q0 -112 -75.5 -190.5t-201.5 -78.5zM321 91q68 0 110.5 45t42.5 111
q0 63 -44 106.5t-113 43.5q-68 0 -109.5 -43t-41.5 -109q0 -64 44 -109t111 -45z" />
    <glyph glyph-name="ntilde" unicode="&#xf1;" horiz-adv-x="620" 
d="M76 0v528h121v-82q63 93 165 93q88 0 138 -55t50 -148v-336h-121v300q0 62 -29.5 95.5t-83.5 33.5q-53 0 -86 -35t-33 -96v-298h-121zM192 585l-67 20q17 64 42.5 94.5t69.5 30.5q30 0 79 -20t65 -20q21 0 32 11t23 39l67 -21q-17 -64 -42.5 -94t-69.5 -30q-30 0 -79 20
t-65 20q-21 0 -32 -11t-23 -39z" />
    <glyph glyph-name="ograve" unicode="&#xf2;" horiz-adv-x="657" 
d="M327 -12q-120 0 -200 80t-80 195t81 195.5t201 80.5t200.5 -80t80.5 -196q0 -114 -81 -194.5t-202 -80.5zM329 93q72 0 116 49t44 121q0 71 -46 120.5t-116 49.5q-71 0 -115 -49t-44 -121q0 -70 46 -120t115 -50zM281 595l-122 115l110 49l106 -164h-94z" />
    <glyph glyph-name="oacute" unicode="&#xf3;" horiz-adv-x="657" 
d="M327 -12q-120 0 -200 80t-80 195t81 195.5t201 80.5t200.5 -80t80.5 -196q0 -114 -81 -194.5t-202 -80.5zM329 93q72 0 116 49t44 121q0 71 -46 120.5t-116 49.5q-71 0 -115 -49t-44 -121q0 -70 46 -120t115 -50zM281 595l106 164l110 -49l-122 -115h-94z" />
    <glyph glyph-name="ocircumflex" unicode="&#xf4;" horiz-adv-x="657" 
d="M327 -12q-120 0 -200 80t-80 195t81 195.5t201 80.5t200.5 -80t80.5 -196q0 -114 -81 -194.5t-202 -80.5zM329 93q72 0 116 49t44 121q0 71 -46 120.5t-116 49.5q-71 0 -115 -49t-44 -121q0 -70 46 -120t115 -50zM156 595l116 146h112l116 -146h-96l-77 67l-77 -67h-94z
" />
    <glyph glyph-name="otilde" unicode="&#xf5;" horiz-adv-x="657" 
d="M327 -12q-120 0 -200 80t-80 195t81 195.5t201 80.5t200.5 -80t80.5 -196q0 -114 -81 -194.5t-202 -80.5zM329 93q72 0 116 49t44 121q0 71 -46 120.5t-116 49.5q-71 0 -115 -49t-44 -121q0 -70 46 -120t115 -50zM206 585l-67 20q17 64 42.5 94.5t69.5 30.5q30 0 79 -20
t65 -20q21 0 32 11t23 39l67 -21q-17 -64 -42.5 -94t-69.5 -30q-30 0 -79 20t-65 20q-21 0 -32 -11t-23 -39z" />
    <glyph glyph-name="odieresis" unicode="&#xf6;" horiz-adv-x="657" 
d="M327 -12q-120 0 -200 80t-80 195t81 195.5t201 80.5t200.5 -80t80.5 -196q0 -114 -81 -194.5t-202 -80.5zM329 93q72 0 116 49t44 121q0 71 -46 120.5t-116 49.5q-71 0 -115 -49t-44 -121q0 -70 46 -120t115 -50zM366 595v118h123v-118h-123zM167 595v118h123v-118h-123z
" />
    <glyph glyph-name="divide" unicode="&#xf7;" horiz-adv-x="640" 
d="M83 299v111h473v-111h-473zM256 497v131h124v-131h-124zM256 80v131h124v-131h-124z" />
    <glyph glyph-name="oslash" unicode="&#xf8;" horiz-adv-x="657" 
d="M327 -12q-83 0 -151 43l-34 -36h-110l80 89q-65 76 -65 179q0 115 81 195.5t201 80.5q84 0 151 -43l35 38h110q-51 -57 -81 -91q66 -74 66 -180q0 -114 -81 -194.5t-202 -80.5zM190 172l218 240q-37 24 -81 24q-73 0 -117.5 -50t-44.5 -123q0 -50 25 -91zM329 91
q73 0 118 49.5t45 122.5q0 49 -25 92l-219 -241q35 -23 81 -23z" />
    <glyph glyph-name="ugrave" unicode="&#xf9;" horiz-adv-x="620" 
d="M258 -11q-88 0 -138 55t-50 148v336h121v-300q0 -62 29.5 -95.5t83.5 -33.5q53 0 86 35t33 96v298h121v-528h-121v82q-63 -93 -165 -93zM275 594l-122 115l110 49l106 -164h-94z" />
    <glyph glyph-name="uacute" unicode="&#xfa;" horiz-adv-x="620" 
d="M258 -11q-88 0 -138 55t-50 148v336h121v-300q0 -62 29.5 -95.5t83.5 -33.5q53 0 86 35t33 96v298h121v-528h-121v82q-63 -93 -165 -93zM249 594l106 164l110 -49l-122 -115h-94z" />
    <glyph glyph-name="ucircumflex" unicode="&#xfb;" horiz-adv-x="620" 
d="M258 -11q-88 0 -138 55t-50 148v336h121v-300q0 -62 29.5 -95.5t83.5 -33.5q53 0 86 35t33 96v298h121v-528h-121v82q-63 -93 -165 -93zM138 595l116 146h112l116 -146h-96l-77 67l-77 -67h-94z" />
    <glyph glyph-name="udieresis" unicode="&#xfc;" horiz-adv-x="620" 
d="M258 -11q-88 0 -138 55t-50 148v336h121v-300q0 -62 29.5 -95.5t83.5 -33.5q53 0 86 35t33 96v298h121v-528h-121v82q-63 -93 -165 -93zM348 595v118h123v-118h-123zM149 595v118h123v-118h-123z" />
    <glyph glyph-name="yacute" unicode="&#xfd;" horiz-adv-x="596" 
d="M184 -163q-66 0 -125 32l41 90q37 -20 71 -20q26 0 43 13.5t32 47.5l-220 528h129l150 -392l137 392h126l-210 -543q-32 -81 -71 -114.5t-103 -33.5zM244 594l106 164l110 -49l-122 -115h-94z" />
    <glyph glyph-name="thorn" unicode="&#xfe;" horiz-adv-x="670" 
d="M76 -160v890h121v-290q70 99 179 99q100 0 173 -74.5t73 -201.5q0 -125 -73 -199.5t-173 -74.5q-109 0 -179 93v-242h-121zM348 94q64 0 107.5 47t43.5 124q0 75 -44 122t-107 47t-108.5 -48t-45.5 -123q0 -74 45.5 -121.5t108.5 -47.5z" />
    <glyph glyph-name="ydieresis" unicode="&#xff;" horiz-adv-x="596" 
d="M184 -163q-66 0 -125 32l41 90q37 -20 71 -20q26 0 43 13.5t32 47.5l-220 528h129l150 -392l137 392h126l-210 -543q-32 -81 -71 -114.5t-103 -33.5zM336 595v118h123v-118h-123zM137 595v118h123v-118h-123z" />
    <glyph glyph-name="dotlessi" unicode="&#x131;" horiz-adv-x="286" 
d="M83 0v528h121v-528h-121z" />
    <glyph glyph-name="Lslash" unicode="&#x141;" horiz-adv-x="649" 
d="M120 0v278l-75 -22v114l75 23v307h122v-270l202 60v-114l-202 -61v-203h369v-112h-491z" />
    <glyph glyph-name="lslash" unicode="&#x142;" horiz-adv-x="346" 
d="M113 0v297l-76 -23v115l76 23v318h120v-283l76 23v-115l-76 -23v-332h-120z" />
    <glyph glyph-name="OE" unicode="&#x152;" horiz-adv-x="1098" 
d="M431 0q-164 0 -268 99.5t-104 250.5q0 150 104.5 250t267.5 100h606v-110h-374v-182h329v-110h-329v-188h379v-110h-611zM431 112h109v476h-109q-109 0 -176 -66.5t-67 -171.5q0 -104 67 -171t176 -67z" />
    <glyph glyph-name="oe" unicode="&#x153;" horiz-adv-x="1040" 
d="M321 -12q-114 0 -194 80.5t-80 194.5t81 195t198 81q66 0 121 -29.5t90 -79.5q34 51 87 80t117 29q120 0 186 -81.5t66 -202.5q0 -14 -2 -34h-388q10 -63 51.5 -98.5t100.5 -35.5q79 0 144 63l71 -63q-84 -99 -216 -99q-68 0 -125 29.5t-93 81.5q-35 -51 -91.5 -81
t-123.5 -30zM602 301h272q-7 62 -41.5 100.5t-92.5 38.5q-55 0 -92.5 -38.5t-45.5 -100.5zM326 93q70 0 113 49t43 121q0 71 -45 120.5t-113 49.5q-69 0 -112.5 -49.5t-43.5 -120.5q0 -70 45 -120t113 -50z" />
    <glyph glyph-name="Scaron" unicode="&#x160;" horiz-adv-x="640" 
d="M335 -10q-167 0 -292 112l74 88q105 -91 221 -91q57 0 90.5 24.5t33.5 65.5q0 39 -32 62.5t-126 45.5q-122 29 -177.5 73.5t-55.5 136.5q0 90 67 146.5t172 56.5q144 0 254 -88l-66 -93q-97 72 -190 72q-53 0 -83.5 -24t-30.5 -61q0 -41 33.5 -63.5t132.5 -46.5
q116 -28 170.5 -75t54.5 -132q0 -97 -69 -153t-181 -56zM264 758l-116 146h96l77 -66l77 66h94l-116 -146h-112z" />
    <glyph glyph-name="scaron" unicode="&#x161;" 
d="M257 -10q-124 0 -224 79l54 82q86 -65 173 -65q39 0 60.5 15.5t21.5 43.5q0 14 -7.5 24.5t-26.5 19.5t-32 13t-43 13l-9 3q-28 8 -47.5 15.5t-43.5 20.5t-39 28.5t-25 39.5t-10 54q0 73 53.5 117t134.5 44q103 0 194 -60l-48 -86q-82 50 -149 50q-35 0 -54.5 -15
t-19.5 -40q0 -17 17.5 -31t35 -20.5t56.5 -19.5q2 -1 5 -2t5 -1q35 -11 59 -21.5t50.5 -28.5t40.5 -44.5t14 -61.5q0 -80 -55 -123t-141 -43zM198 595l-116 146h96l77 -66l77 66h94l-116 -146h-112z" />
    <glyph glyph-name="Ydieresis" unicode="&#x178;" horiz-adv-x="716" 
d="M296 0v276l-278 424h145l196 -310l198 310h141l-278 -421v-279h-124zM396 757v118h123v-118h-123zM197 757v118h123v-118h-123z" />
    <glyph glyph-name="Zcaron" unicode="&#x17d;" horiz-adv-x="702" 
d="M65 0v91l413 500h-400v109h560v-91l-413 -500h413v-109h-573zM299 758l-116 146h96l77 -66l77 66h94l-116 -146h-112z" />
    <glyph glyph-name="zcaron" unicode="&#x17e;" horiz-adv-x="560" 
d="M52 0v83l305 346h-294v99h448v-83l-305 -346h305v-99h-459zM232 595l-116 146h96l77 -66l77 66h94l-116 -146h-112z" />
    <glyph glyph-name="florin" unicode="&#x192;" horiz-adv-x="527" 
d="M97 -5q-36 0 -56 5v99q17 -4 40 -4q32 0 49 16t24 52l35 193h-80v101h97l18 93q15 78 55.5 116.5t119.5 38.5q55 0 92 -12v-100q-40 10 -69 10q-35 0 -54.5 -18.5t-26.5 -59.5l-12 -68h127v-101h-145l-38 -211q-14 -79 -56.5 -114.5t-119.5 -35.5z" />
    <glyph glyph-name="circumflex" unicode="&#x2c6;" 
d="M78 595l116 146h112l116 -146h-96l-77 67l-77 -67h-94z" />
    <glyph glyph-name="caron" unicode="&#x2c7;" 
d="M194 595l-116 146h96l77 -66l77 66h94l-116 -146h-112z" />
    <glyph glyph-name="breve" unicode="&#x2d8;" 
d="M250 593q-73 0 -119.5 39t-51.5 109h83q20 -63 88 -63t88 63h83q-5 -70 -51.5 -109t-119.5 -39z" />
    <glyph glyph-name="dotaccent" unicode="&#x2d9;" 
d="M187 595v119h126v-119h-126z" />
    <glyph glyph-name="ring" unicode="&#x2da;" 
d="M250 593q-45 0 -79.5 33t-34.5 78q0 44 34.5 76.5t79.5 32.5t79.5 -33t34.5 -78q0 -44 -34.5 -76.5t-79.5 -32.5zM250 641q26 0 44 18.5t18 44.5q0 25 -18.5 43t-43.5 18q-26 0 -44 -18.5t-18 -44.5q0 -25 18.5 -43t43.5 -18z" />
    <glyph glyph-name="ogonek" unicode="&#x2db;" 
d="M366 -164q-91 -6 -140.5 23t-49.5 85q0 30 15 66h86q-6 -22 -6 -44q0 -68 95 -74v-56z" />
    <glyph glyph-name="tilde" unicode="&#x2dc;" 
d="M128 585l-67 20q17 64 42.5 94.5t69.5 30.5q30 0 79 -20t65 -20q21 0 32 11t23 39l67 -21q-17 -64 -42.5 -94t-69.5 -30q-30 0 -79 20t-65 20q-21 0 -32 -11t-23 -39z" />
    <glyph glyph-name="hungarumlaut" unicode="&#x2dd;" 
d="M238 595l106 164l106 -49l-122 -115h-90zM56 595l104 164l106 -49l-120 -115h-90z" />
    <glyph glyph-name="Omega" unicode="&#x3a9;" horiz-adv-x="786" 
d="M68 0v100h182v48q-86 23 -134 95.5t-48 164.5q0 135 94.5 218.5t232.5 83.5q135 0 228 -83t93 -218q0 -92 -47.5 -165.5t-133.5 -95.5v-48h181v-100h-273v200q74 14 112.5 68t38.5 131q0 88 -56 147t-144 59q-89 0 -145.5 -60t-56.5 -148q0 -76 39 -130.5t111 -66.5v-200
h-274z" />
    <glyph glyph-name="pi" unicode="&#x3c0;" 
d="M0 0v700h500v-700h-500zM81 49h339l-170 255zM49 96l171 254l-171 254v-508zM450 96v508l-171 -254zM250 395l170 255h-339z" />
    <glyph glyph-name="afii10023" unicode="&#x401;" horiz-adv-x="670" 
d="M387 758v118h123v-118h-123zM188 758v118h123v-118h-123zM90 0v700h519v-110h-396v-182h351v-110h-351v-188h401v-110h-524z" />
    <glyph glyph-name="afii10051" unicode="&#x402;" horiz-adv-x="874" 
d="M564 -16q-54 0 -106 18l23 108q27 -9 58 -9q59 0 97 29t38 93q0 57 -36.5 88t-100.5 31q-103 0 -179 -68v-274h-123v589h-197v111h577v-111h-257v-196q94 67 206 67q106 0 171.5 -62t65.5 -172q0 -117 -65 -179.5t-172 -62.5z" />
    <glyph glyph-name="afii10052" unicode="&#x403;" horiz-adv-x="594" 
d="M233 758l106 164l110 -49l-122 -115h-94zM90 0v700h471v-111h-349v-589h-122z" />
    <glyph glyph-name="afii10053" unicode="&#x404;" horiz-adv-x="736" 
d="M414 -12q-152 0 -253.5 104.5t-101.5 257.5q0 151 102 256.5t258 105.5q88 0 149.5 -28.5t118.5 -81.5l-70 -84q-93 83 -199 83q-86 0 -148.5 -55t-78.5 -141h314v-105h-315q14 -88 77.5 -145t150.5 -57q62 0 108.5 22.5t96.5 68.5l79 -81q-57 -60 -125 -90t-163 -30z
" />
    <glyph glyph-name="afii10054" unicode="&#x405;" horiz-adv-x="640" 
d="M335 -10q-167 0 -292 112l74 88q105 -91 221 -91q57 0 90.5 24.5t33.5 65.5q0 39 -32 62.5t-126 45.5q-122 29 -177.5 73.5t-55.5 136.5q0 90 67 146.5t172 56.5q144 0 254 -88l-66 -93q-97 72 -190 72q-53 0 -83.5 -24t-30.5 -61q0 -41 33.5 -63.5t132.5 -46.5
q116 -28 170.5 -75t54.5 -132q0 -97 -69 -153t-181 -56z" />
    <glyph glyph-name="afii10055" unicode="&#x406;" horiz-adv-x="317" 
d="M97 0v700h123v-700h-123z" />
    <glyph glyph-name="afii10056" unicode="&#x407;" horiz-adv-x="317" 
d="M197 758v118h123v-118h-123zM-2 758v118h123v-118h-123zM97 0v700h123v-700h-123z" />
    <glyph glyph-name="afii10057" unicode="&#x408;" horiz-adv-x="559" 
d="M245 -10q-141 0 -224 113l81 83q65 -82 141 -82q51 0 81 34.5t30 102.5v459h126v-462q0 -121 -65 -186q-62 -62 -170 -62z" />
    <glyph glyph-name="afii10058" unicode="&#x409;" horiz-adv-x="1132" 
d="M90 -8q-43 0 -85 11l12 101q18 -6 40 -6q24 0 41.5 7.5t37 35.5t31 76.5t19.5 135.5t8 209v138h476v-252h161q120 0 191 -57.5t71 -161.5q0 -106 -71 -167.5t-192 -61.5h-283v589h-238v-63q0 -161 -14 -268t-44 -164t-68 -79.5t-93 -22.5zM670 110h158q69 0 106 30.5
t37 89.5q0 54 -38 82.5t-108 28.5h-155v-231z" />
    <glyph glyph-name="afii10059" unicode="&#x40a;" horiz-adv-x="1131" 
d="M90 0v700h122v-274h334v274h123v-274h175q114 0 181 -55t67 -154q0 -102 -67.5 -159.5t-186.5 -57.5h-292v321h-334v-321h-122zM669 110h164q136 0 136 111q0 102 -138 102h-162v-213z" />
    <glyph glyph-name="afii10060" unicode="&#x40b;" horiz-adv-x="874" 
d="M236 0v589h-198v111h577v-111h-257v-200q96 67 206 67q106 0 171.5 -56.5t65.5 -158.5v-241h-122v196q0 67 -36 104.5t-101 37.5q-107 0 -184 -70v-268h-122z" />
    <glyph glyph-name="afii10061" unicode="&#x40c;" horiz-adv-x="725" 
d="M306 758l106 164l110 -49l-122 -115h-94zM90 0v700h123v-352l333 352h151l-291 -301l304 -399h-149l-239 315l-109 -112v-203h-123z" />
    <glyph glyph-name="afii10062" unicode="&#x40e;" horiz-adv-x="732" 
d="M380 755q-63 0 -105 37.5t-53 102.5l75 14q19 -68 83 -68q62 0 83 68l74 -14q-10 -65 -52 -102.5t-105 -37.5zM211 -11q-72 0 -137 35l47 92q39 -22 86 -22q63 0 110 76l-292 530h138l218 -407l192 407h133l-273 -547q-81 -164 -222 -164z" />
    <glyph glyph-name="afii10145" unicode="&#x40f;" horiz-adv-x="751" 
d="M316 -150v150h-227v700h122v-589h327v589h122v-700h-225v-150h-119z" />
    <glyph glyph-name="afii10017" unicode="&#x410;" horiz-adv-x="790" 
d="M30 0l308 705h114l308 -705h-130l-71 169h-331l-72 -169h-126zM273 278h241l-121 280z" />
    <glyph glyph-name="afii10018" unicode="&#x411;" horiz-adv-x="710" 
d="M90 0v700h522v-111h-400v-161h195q117 0 185.5 -56t68.5 -156q0 -104 -69 -160t-191 -56h-311zM212 110h162q84 0 124 24.5t40 86.5q0 103 -142 103h-184v-214z" />
    <glyph glyph-name="afii10019" unicode="&#x412;" horiz-adv-x="722" 
d="M90 0v700h314q121 0 183 -62q47 -47 47 -118q0 -104 -100 -156q139 -47 139 -172q0 -92 -70 -142t-189 -50h-324zM211 405h168q61 0 96.5 24.5t35.5 72.5q0 42 -32 65.5t-91 23.5h-177v-186zM211 109h204q64 0 99.5 25t35.5 73q0 94 -144 94h-195v-192z" />
    <glyph glyph-name="afii10020" unicode="&#x413;" horiz-adv-x="594" 
d="M90 0v700h471v-111h-349v-589h-122z" />
    <glyph glyph-name="afii10021" unicode="&#x414;" horiz-adv-x="762" 
d="M10 -150v260h68q89 176 89 491v99h488v-590h87l-17 -260h-102v150h-493l-12 -150h-108zM209 110h323v479h-247v-80q0 -245 -76 -399z" />
    <glyph glyph-name="afii10022" unicode="&#x415;" horiz-adv-x="670" 
d="M90 0v700h519v-110h-396v-182h351v-110h-351v-188h401v-110h-524z" />
    <glyph glyph-name="afii10024" unicode="&#x416;" horiz-adv-x="1086" 
d="M604 0h-122v186l-110 125l-209 -311h-148l276 402l-262 298h147l306 -364v364h122v-364l306 364h147l-263 -298l277 -402h-148l-209 311l-110 -125v-186z" />
    <glyph glyph-name="afii10025" unicode="&#x417;" horiz-adv-x="646" 
d="M328 712q108 0 177 -53t69 -135q0 -113 -119 -163q63 -19 100 -61t37 -107q0 -89 -71 -147t-186 -58q-99 0 -170.5 28.5t-132.5 86.5l67 85q98 -93 233 -93q58 0 97.5 28.5t39.5 76.5q0 52 -44 77t-116 25h-79v102h78q68 0 106 26.5t38 75.5q0 44 -36.5 71t-95.5 27
q-115 0 -196 -78l-66 80q111 106 270 106z" />
    <glyph glyph-name="afii10026" unicode="&#x418;" horiz-adv-x="771" 
d="M90 0v700h121v-511l354 511h115v-700h-121v510l-353 -510h-116z" />
    <glyph glyph-name="afii10027" unicode="&#x419;" horiz-adv-x="771" 
d="M389 755q-63 0 -105 37.5t-53 102.5l75 14q19 -68 83 -68q62 0 83 68l74 -14q-10 -65 -52 -102.5t-105 -37.5zM90 0v700h121v-511l354 511h115v-700h-121v510l-353 -510h-116z" />
    <glyph glyph-name="afii10028" unicode="&#x41a;" horiz-adv-x="725" 
d="M90 0v700h123v-352l333 352h151l-291 -301l304 -399h-149l-239 315l-109 -112v-203h-123z" />
    <glyph glyph-name="afii10029" unicode="&#x41b;" horiz-adv-x="765" 
d="M90 -8q-43 0 -85 11l12 101q18 -6 40 -6q24 0 41.5 7.5t37 35.5t31 76.5t19.5 135.5t8 209v138h480v-700h-123v589h-242v-63q0 -163 -14 -270.5t-44 -164t-67.5 -78t-93.5 -21.5z" />
    <glyph glyph-name="afii10030" unicode="&#x41c;" horiz-adv-x="868" 
d="M90 0v700h131l213 -331l213 331h131v-700h-123v502l-221 -330h-4l-219 328v-500h-121z" />
    <glyph glyph-name="afii10031" unicode="&#x41d;" horiz-adv-x="760" 
d="M90 0v700h123v-291h334v291h123v-700h-123v295h-334v-295h-123z" />
    <glyph glyph-name="afii10032" unicode="&#x41e;" horiz-adv-x="850" 
d="M424 -12q-159 0 -262 105t-103 257q0 150 104 256t263 106t262 -105t103 -257q0 -150 -104 -256t-263 -106zM426 101q103 0 169.5 72t66.5 177q0 104 -67.5 176.5t-170.5 72.5t-169.5 -72t-66.5 -177q0 -104 67.5 -176.5t170.5 -72.5z" />
    <glyph glyph-name="afii10033" unicode="&#x41f;" horiz-adv-x="751" 
d="M90 0v700h571v-700h-123v589h-325v-589h-123z" />
    <glyph glyph-name="afii10034" unicode="&#x420;" horiz-adv-x="668" 
d="M90 0v700h276q122 0 194 -64t72 -172q0 -113 -79.5 -176t-200.5 -63h-139v-225h-123zM213 336h143q69 0 110 35t41 92q0 60 -40.5 92.5t-110.5 32.5h-143v-252z" />
    <glyph glyph-name="afii10035" unicode="&#x421;" horiz-adv-x="738" 
d="M415 -12q-152 0 -254 104.5t-102 257.5q0 152 102 257t259 105q91 0 154.5 -28t119.5 -81l-79 -91q-94 87 -196 87q-100 0 -165.5 -72t-65.5 -177q0 -104 66 -176.5t165 -72.5q60 0 106 22.5t95 68.5l79 -80q-59 -62 -125 -93t-159 -31z" />
    <glyph glyph-name="afii10036" unicode="&#x422;" horiz-adv-x="648" 
d="M262 0v586h-222v114h568v-114h-222v-586h-124z" />
    <glyph glyph-name="afii10037" unicode="&#x423;" horiz-adv-x="732" 
d="M211 -11q-72 0 -137 35l47 92q39 -22 86 -22q63 0 110 76l-292 530h138l218 -407l192 407h133l-273 -547q-81 -164 -222 -164z" />
    <glyph glyph-name="afii10038" unicode="&#x424;" horiz-adv-x="917" 
d="M397 -27v76q-162 0 -256 85t-94 222q0 136 94 219.5t256 83.5v66h122v-66q162 0 256 -84t94 -220t-93.5 -221t-256.5 -85v-76h-122zM397 158v391q-104 0 -164 -52t-60 -143q0 -92 60 -144t164 -52zM519 158q105 0 164.5 51.5t59.5 144.5q0 91 -60 143t-164 52v-391z" />
    <glyph glyph-name="afii10039" unicode="&#x425;" horiz-adv-x="729" 
d="M37 0l255 356l-245 344h145l174 -251l175 251h141l-244 -342l254 -358h-145l-184 265l-185 -265h-141z" />
    <glyph glyph-name="afii10040" unicode="&#x426;" horiz-adv-x="770" 
d="M631 -150v150h-541v700h123v-589h328v589h122v-589h87l-17 -261h-102z" />
    <glyph glyph-name="afii10041" unicode="&#x427;" horiz-adv-x="714" 
d="M501 0v277q-113 -59 -199 -59q-106 0 -168.5 56.5t-62.5 166.5v259h123v-228q0 -67 33 -103.5t97 -36.5q95 0 177 55v313h123v-700h-123z" />
    <glyph glyph-name="afii10042" unicode="&#x428;" horiz-adv-x="1097" 
d="M90 0v700h122v-590h275v590h123v-590h275v590h122v-700h-917z" />
    <glyph glyph-name="afii10043" unicode="&#x429;" horiz-adv-x="1114" 
d="M976 -150v150h-886v700h123v-589h275v589h122v-589h275v589h123v-589h86l-17 -261h-101z" />
    <glyph glyph-name="afii10044" unicode="&#x42a;" horiz-adv-x="795" 
d="M210 0v589h-175v111h297v-252h161q120 0 191.5 -57.5t71.5 -161.5q0 -106 -71 -167.5t-193 -61.5h-282zM332 110h158q69 0 106.5 30.5t37.5 89.5q0 54 -38 82.5t-109 28.5h-155v-231z" />
    <glyph glyph-name="afii10045" unicode="&#x42b;" horiz-adv-x="931" 
d="M90 0v700h122v-252h161q120 0 191.5 -57.5t71.5 -161.5q0 -106 -71 -167.5t-193 -61.5h-282zM212 110h158q69 0 106.5 30.5t37.5 89.5q0 54 -38 82.5t-108 28.5h-156v-231zM719 0v700h122v-700h-122z" />
    <glyph glyph-name="afii10046" unicode="&#x42c;" horiz-adv-x="675" 
d="M90 0v700h122v-252h161q120 0 191.5 -57.5t71.5 -161.5q0 -106 -71 -167.5t-193 -61.5h-282zM212 110h158q69 0 106.5 30.5t37.5 89.5q0 54 -38 82.5t-108 28.5h-156v-231z" />
    <glyph glyph-name="afii10047" unicode="&#x42d;" horiz-adv-x="734" 
d="M320 -12q-95 0 -163 30t-125 90l79 81q50 -46 96.5 -68.5t108.5 -22.5q88 0 151 57t77 145h-314v105h313q-16 86 -78.5 141t-148.5 55q-106 0 -199 -83l-70 84q56 53 118.5 81.5t149.5 28.5q156 0 258 -105.5t102 -256.5q0 -153 -101.5 -257.5t-253.5 -104.5z" />
    <glyph glyph-name="afii10048" unicode="&#x42e;" horiz-adv-x="1058" 
d="M661 -12q-134 0 -225 87t-108 222h-115v-297h-123v700h123v-293h116q18 132 109.5 218.5t224.5 86.5q147 0 241.5 -104t94.5 -258q0 -153 -95 -257.5t-243 -104.5zM663 99q92 0 151 71.5t59 179.5q0 106 -60 178t-152 72t-150.5 -71t-58.5 -179q0 -106 59.5 -178.5
t151.5 -72.5z" />
    <glyph glyph-name="afii10049" unicode="&#x42f;" horiz-adv-x="722" 
d="M36 0l191 263q-77 21 -122 75.5t-45 138.5q0 102 70 162.5t191 60.5h311v-700h-122v242h-155l-174 -242h-145zM329 349h181v240h-179q-69 0 -108 -31.5t-39 -88.5q0 -55 39.5 -87.5t105.5 -32.5z" />
    <glyph glyph-name="afii10065" unicode="&#x430;" horiz-adv-x="587" 
d="M519 0h-120v65q-64 -76 -171 -76q-79 0 -133.5 43.5t-54.5 121.5q0 85 59 129t155 44q77 0 146 -22v10q0 55 -33.5 84t-96.5 29q-72 0 -151 -33l-33 97q98 44 201 44q115 0 173.5 -58t58.5 -165v-313zM402 191v30q-54 21 -121 21q-57 0 -89 -22t-32 -62q0 -36 29 -57
t73 -21q61 0 100.5 31t39.5 80z" />
    <glyph glyph-name="afii10066" unicode="&#x431;" horiz-adv-x="654" 
d="M334 93q67 0 109.5 46.5t42.5 115.5q0 68 -44.5 115.5t-109.5 47.5q-66 0 -108.5 -47t-42.5 -116q0 -68 44 -115t109 -47zM332 -12q-128 0 -200 81t-72 227q0 47 2.5 82.5t9.5 77t21.5 72.5t37 59.5t58 48t82.5 29.5l288 60l20 -97l-288 -63q-72 -15 -103 -53.5
t-36 -96.5q24 40 75.5 69.5t127.5 29.5q103 0 177.5 -74.5t74.5 -182.5q0 -111 -78.5 -190t-196.5 -79z" />
    <glyph glyph-name="afii10067" unicode="&#x432;" horiz-adv-x="590" 
d="M76 0v528h271q79 0 126.5 -35.5t47.5 -96.5q0 -83 -85 -121q109 -31 109 -132q0 -67 -52.5 -105t-142.5 -38h-274zM195 96h137q43 0 66.5 18.5t23.5 49.5q0 30 -24.5 47t-71.5 17h-131v-132zM195 310h124q37 0 58 18t21 47q0 27 -19 43.5t-58 16.5h-126v-125z" />
    <glyph glyph-name="afii10068" unicode="&#x433;" horiz-adv-x="470" 
d="M76 0v528h374v-104h-253v-424h-121z" />
    <glyph glyph-name="afii10069" unicode="&#x434;" horiz-adv-x="640" 
d="M15 -127v231h57q59 118 59 359v65h409v-424h75l-16 -231h-101v127h-370l-12 -127h-101zM196 104h223v320h-174v-70q0 -147 -49 -250z" />
    <glyph glyph-name="afii10070" unicode="&#x435;" horiz-adv-x="604" 
d="M318 -12q-116 0 -193.5 77t-77.5 199q0 115 73 195t185 80q120 0 186.5 -81.5t66.5 -202.5q0 -22 -2 -34h-388q10 -63 51 -98.5t101 -35.5q78 0 143 63l71 -63q-82 -99 -216 -99zM167 301h271q-6 61 -41 100t-93 39q-55 0 -92 -38.5t-45 -100.5z" />
    <glyph glyph-name="afii10072" unicode="&#x436;" horiz-adv-x="875" 
d="M9 0l207 306l-199 222h141l219 -259v259h121v-259l220 259h141l-199 -222l206 -306h-136l-151 225l-81 -92v-133h-121v133l-81 92l-151 -225h-136z" />
    <glyph glyph-name="afii10073" unicode="&#x437;" horiz-adv-x="518" 
d="M256 -12q-136 0 -231 81l57 80q74 -63 166 -63q42 0 71 20.5t29 52.5q0 30 -28 48t-79 18h-65v87h65q42 0 67.5 19.5t25.5 49.5q0 27 -24.5 43.5t-62.5 16.5q-88 0 -150 -54l-54 76q87 76 215 76q87 0 142 -40t55 -102q0 -84 -83 -120q96 -34 96 -128q0 -68 -59 -114.5
t-153 -46.5z" />
    <glyph glyph-name="afii10074" unicode="&#x438;" horiz-adv-x="634" 
d="M76 0v528h118v-354q166 236 250 354h114v-528h-117v352l-251 -352h-114z" />
    <glyph glyph-name="afii10075" unicode="&#x439;" horiz-adv-x="634" 
d="M318 589q-63 0 -105 37.5t-52 101.5l74 14q21 -68 83 -68t83 68l73 -14q-10 -64 -51.5 -101.5t-104.5 -37.5zM76 0v528h118v-354q166 236 250 354h114v-528h-117v352l-251 -352h-114z" />
    <glyph glyph-name="afii10076" unicode="&#x43a;" horiz-adv-x="593" 
d="M76 0v528h120v-253l230 253h142l-205 -222l222 -306h-143l-160 218l-86 -91v-127h-120z" />
    <glyph glyph-name="afii10077" unicode="&#x43b;" horiz-adv-x="623" 
d="M72 -6q-29 0 -71 7l9 99q16 -4 35 -4q21 0 34.5 6t28 30.5t22.5 69.5t13 126.5t5 199.5h399v-528h-121v424h-165q0 -113 -9 -192t-23.5 -125t-40 -71.5t-51.5 -33.5t-65 -8z" />
    <glyph glyph-name="afii10078" unicode="&#x43c;" horiz-adv-x="723" 
d="M76 0v528h120l165 -245l166 245h120v-528h-122v352l-166 -237l-165 235v-350h-118z" />
    <glyph glyph-name="afii10079" unicode="&#x43d;" horiz-adv-x="627" 
d="M76 0v528h121v-214h233v214h121v-528h-121v213h-233v-213h-121z" />
    <glyph glyph-name="afii10080" unicode="&#x43e;" horiz-adv-x="657" 
d="M327 -12q-120 0 -200 80t-80 195t81 195.5t201 80.5t200.5 -80t80.5 -196q0 -114 -81 -194.5t-202 -80.5zM329 93q72 0 116 49t44 121q0 71 -46 120.5t-116 49.5q-71 0 -115 -49t-44 -121q0 -70 46 -120t115 -50z" />
    <glyph glyph-name="afii10081" unicode="&#x43f;" horiz-adv-x="623" 
d="M76 0v528h471v-528h-121v424h-229v-424h-121z" />
    <glyph glyph-name="afii10082" unicode="&#x440;" horiz-adv-x="670" 
d="M76 -160v688h121v-88q70 99 179 99q100 0 173 -74.5t73 -201.5q0 -125 -73 -199.5t-173 -74.5q-109 0 -179 93v-242h-121zM348 94q64 0 107.5 47t43.5 124q0 75 -44 122t-107 47t-108.5 -48t-45.5 -123q0 -74 45.5 -121.5t108.5 -47.5z" />
    <glyph glyph-name="afii10083" unicode="&#x441;" horiz-adv-x="566" 
d="M320 -12q-117 0 -195 79.5t-78 193.5v2q0 114 78.5 195t195.5 81q128 0 211 -91l-75 -81q-63 66 -137 66q-65 0 -108.5 -49t-43.5 -119v-2q0 -72 44.5 -121t113.5 -49q73 0 137 66l73 -72q-43 -48 -93.5 -73.5t-122.5 -25.5z" />
    <glyph glyph-name="afii10084" unicode="&#x442;" horiz-adv-x="501" 
d="M189 0v424h-170v104h462v-104h-170v-424h-122z" />
    <glyph glyph-name="afii10085" unicode="&#x443;" horiz-adv-x="596" 
d="M184 -163q-66 0 -125 32l41 90q37 -20 71 -20q26 0 43 13.5t32 47.5l-220 528h129l150 -392l137 392h126l-210 -543q-32 -81 -71 -114.5t-103 -33.5z" />
    <glyph glyph-name="afii10086" unicode="&#x444;" horiz-adv-x="889" 
d="M384 -160v198q-48 -46 -121 -46q-96 0 -155 72.5t-59 199.5q0 126 59.5 199t155.5 73q69 0 120 -53v217h121v-217q51 53 120 53q96 0 155.5 -73.5t59.5 -199.5q0 -127 -59 -199t-155 -72q-73 0 -121 46v-198h-121zM299 93q45 0 85 35v268q-40 37 -85 37q-62 0 -95 -46
t-33 -125q0 -80 32.5 -124.5t95.5 -44.5zM591 93q63 0 95 44.5t32 125.5q0 78 -32.5 124t-94.5 46q-42 0 -86 -37v-268q40 -35 86 -35z" />
    <glyph glyph-name="afii10087" unicode="&#x445;" horiz-adv-x="580" 
d="M30 0l194 268l-187 260h132l122 -174l122 174h129l-187 -257l195 -271h-132l-130 185l-129 -185h-129z" />
    <glyph glyph-name="afii10088" unicode="&#x446;" horiz-adv-x="645" 
d="M503 -127v127h-427v528h120v-424h228v424h120v-424h76l-16 -231h-101z" />
    <glyph glyph-name="afii10089" unicode="&#x447;" horiz-adv-x="594" 
d="M397 0v197q-78 -40 -157 -40q-81 0 -130.5 43.5t-49.5 122.5v205h121v-176q0 -38 24 -65t63 -27q68 0 129 35v233h121v-528h-121z" />
    <glyph glyph-name="afii10090" unicode="&#x448;" horiz-adv-x="904" 
d="M76 0v528h121v-424h195v424h120v-424h195v424h121v-528h-752z" />
    <glyph glyph-name="afii10091" unicode="&#x449;" horiz-adv-x="928" 
d="M787 -127v127h-711v528h121v-424h195v424h120v-424h195v424h121v-424h75l-15 -231h-101z" />
    <glyph glyph-name="afii10092" unicode="&#x44a;" horiz-adv-x="645" 
d="M163 0v425h-146v103h266v-185h122q94 0 152 -42t58 -125q0 -82 -54 -129t-148 -47h-250zM283 98h115q95 0 95 78q0 35 -25 54t-72 19h-113v-151z" />
    <glyph glyph-name="afii10093" unicode="&#x44b;" horiz-adv-x="795" 
d="M76 0v528h121v-185h111q94 0 152 -42t58 -125q0 -82 -54 -129t-147 -47h-241zM197 98h104q46 0 71 20t25 58q0 35 -25.5 54t-72.5 19h-102v-151zM598 0v528h121v-528h-121z" />
    <glyph glyph-name="afii10094" unicode="&#x44c;" horiz-adv-x="558" 
d="M76 0v528h121v-185h121q94 0 152 -42t58 -125q0 -82 -54 -129t-147 -47h-251zM197 98h114q46 0 71 20t25 58q0 35 -25.5 54t-72.5 19h-112v-151z" />
    <glyph glyph-name="afii10095" unicode="&#x44d;" horiz-adv-x="566" 
d="M246 -12q-133 0 -219 98l72 71q66 -68 141 -68q59 0 102 37.5t54 94.5h-207v87h206q-11 55 -52.5 91.5t-97.5 36.5q-81 0 -143 -62l-65 75q85 89 209 89q117 0 195 -81t78 -195t-78.5 -194t-194.5 -80z" />
    <glyph glyph-name="afii10096" unicode="&#x44e;" horiz-adv-x="857" 
d="M545 -12q-104 0 -173.5 63.5t-84.5 162.5h-91v-214h-120v528h120v-214h91q16 97 86.5 160.5t173.5 63.5q117 0 190 -79t73 -196q0 -115 -74 -195t-191 -80zM547 93q68 0 105.5 48.5t37.5 121.5q0 72 -39.5 121t-105.5 49q-68 0 -105 -48t-37 -122q0 -72 39 -121t105 -49z
" />
    <glyph glyph-name="afii10097" unicode="&#x44f;" horiz-adv-x="600" 
d="M28 0l146 198q-56 17 -89.5 57.5t-33.5 100.5q0 78 55 125t153 47h265v-528h-121v178h-108l-125 -178h-142zM276 269h127v161h-128q-48 0 -75.5 -21.5t-27.5 -58.5q0 -38 28.5 -59.5t75.5 -21.5z" />
    <glyph glyph-name="afii10071" unicode="&#x451;" horiz-adv-x="604" 
d="M339 595v118h123v-118h-123zM140 595v118h123v-118h-123zM318 -12q-116 0 -193.5 77t-77.5 199q0 115 73 195t185 80q120 0 186.5 -81.5t66.5 -202.5q0 -22 -2 -34h-388q10 -63 51 -98.5t101 -35.5q78 0 143 63l71 -63q-82 -99 -216 -99zM167 301h271q-6 61 -41 100
t-93 39q-55 0 -92 -38.5t-45 -100.5z" />
    <glyph glyph-name="afii10099" unicode="&#x452;" horiz-adv-x="620" 
d="M357 -9q-51 0 -105 18l21 95q19 -8 43 -8q51 0 83 35.5t32 95.5v45q0 61 -30 95t-84 34t-87.5 -35.5t-33.5 -96.5v-269h-121v559h-72v88h72v83h121v-83h180v-88h-180v-142q66 94 166 94q89 0 139.5 -55t50.5 -148v-115q0 -93 -53 -147.5t-142 -54.5z" />
    <glyph glyph-name="afii10100" unicode="&#x453;" horiz-adv-x="470" 
d="M180 595l106 164l110 -49l-122 -115h-94zM76 0v528h374v-104h-253v-424h-121z" />
    <glyph glyph-name="afii10101" unicode="&#x454;" horiz-adv-x="574" 
d="M320 -12q-116 0 -194.5 80t-78.5 194t78 195t195 81q124 0 209 -89l-65 -75q-62 62 -143 62q-56 0 -98 -36.5t-53 -91.5h207v-87h-208q12 -58 55 -95t102 -37q75 0 141 68l72 -71q-86 -98 -219 -98z" />
    <glyph glyph-name="afii10102" unicode="&#x455;" 
d="M257 -10q-124 0 -224 79l54 82q86 -65 173 -65q39 0 60.5 15.5t21.5 43.5q0 14 -7.5 24.5t-26.5 19.5t-32 13t-43 13l-9 3q-28 8 -47.5 15.5t-43.5 20.5t-39 28.5t-25 39.5t-10 54q0 73 53.5 117t134.5 44q103 0 194 -60l-48 -86q-82 50 -149 50q-35 0 -54.5 -15
t-19.5 -40q0 -17 17.5 -31t35 -20.5t56.5 -19.5q2 -1 5 -2t5 -1q35 -11 59 -21.5t50.5 -28.5t40.5 -44.5t14 -61.5q0 -80 -55 -123t-141 -43z" />
    <glyph glyph-name="afii10103" unicode="&#x456;" horiz-adv-x="286" 
d="M78 609v115h130v-115h-130zM83 0v528h121v-528h-121z" />
    <glyph glyph-name="afii10104" unicode="&#x457;" horiz-adv-x="286" 
d="M182 595v118h123v-118h-123zM-17 595v118h123v-118h-123zM83 0v528h121v-528h-121z" />
    <glyph glyph-name="afii10105" unicode="&#x458;" horiz-adv-x="286" 
d="M78 609v115h130v-115h-130zM50 -163q-26 0 -58 5v97q18 -3 34 -3q57 0 57 64v528h121v-535q0 -156 -154 -156z" />
    <glyph glyph-name="afii10106" unicode="&#x459;" horiz-adv-x="908" 
d="M72 -6q-34 0 -71 7l9 99q16 -4 35 -4q27 0 43 12.5t31.5 54.5t22 131.5t6.5 233.5h399v-185h121q94 0 152 -42t58 -125q0 -82 -54 -129t-147 -47h-251v424h-165q0 -113 -9 -192t-23.5 -125t-40 -71.5t-51.5 -33.5t-65 -8zM547 98h114q46 0 71 20t25 58q0 35 -25.5 54
t-72.5 19h-112v-151z" />
    <glyph glyph-name="afii10107" unicode="&#x45a;" horiz-adv-x="911" 
d="M75 0v528h121v-191h233v191h121v-191h122q94 0 151.5 -41.5t57.5 -124.5q0 -81 -53.5 -126t-147.5 -45h-251v242h-233v-242h-121zM550 98h115q95 0 95 74q0 71 -97 71h-113v-145z" />
    <glyph glyph-name="afii10108" unicode="&#x45b;" horiz-adv-x="620" 
d="M75 0v559h-72v88h72v83h121v-83h180v-88h-180v-141q63 93 165 93q88 0 138.5 -55t50.5 -148v-308h-121v272q0 62 -29.5 95.5t-83.5 33.5t-87 -35t-33 -96v-270h-121z" />
    <glyph glyph-name="afii10109" unicode="&#x45c;" horiz-adv-x="593" 
d="M241 595l106 164l110 -49l-122 -115h-94zM76 0v528h120v-253l230 253h142l-205 -222l222 -306h-143l-160 218l-86 -91v-127h-120z" />
    <glyph glyph-name="afii10110" unicode="&#x45e;" horiz-adv-x="596" 
d="M304 589q-63 0 -105 37.5t-52 101.5l74 14q21 -68 83 -68t83 68l73 -14q-10 -64 -51.5 -101.5t-104.5 -37.5zM184 -163q-66 0 -125 32l41 90q37 -20 71 -20q26 0 43 13.5t32 47.5l-220 528h129l150 -392l137 392h126l-210 -543q-32 -81 -71 -114.5t-103 -33.5z" />
    <glyph glyph-name="afii10193" unicode="&#x45f;" horiz-adv-x="623" 
d="M256 -127v127h-180v528h120v-424h231v424h120v-528h-176v-127h-115z" />
    <glyph glyph-name="afii10050" unicode="&#x490;" horiz-adv-x="594" 
d="M90 0v700h351v150h103l17 -261h-349v-589h-122z" />
    <glyph glyph-name="afii10098" unicode="&#x491;" horiz-adv-x="470" 
d="M76 0v528h258v127h101l15 -231h-253v-424h-121z" />
    <glyph glyph-name="endash" unicode="&#x2013;" horiz-adv-x="528" 
d="M56 249v115h416v-115h-416z" />
    <glyph glyph-name="emdash" unicode="&#x2014;" horiz-adv-x="898" 
d="M56 249v115h786v-115h-786z" />
    <glyph glyph-name="quoteleft" unicode="&#x2018;" horiz-adv-x="269" 
d="M63 422v117q0 81 38 120.5t116 45.5l13 -52q-86 -15 -86 -82q0 -2 0.5 -5.5t0.5 -5.5h51v-138h-133z" />
    <glyph glyph-name="quoteright" unicode="&#x2019;" horiz-adv-x="269" 
d="M52 417l-13 52q86 15 86 83q0 2 -0.5 5.5t-0.5 5.5h-51v137h133v-117q0 -81 -38 -120.5t-116 -45.5z" />
    <glyph glyph-name="quotesinglbase" unicode="&#x201a;" horiz-adv-x="269" 
d="M47 -145l-13 51q92 18 85 94h-51v137h133v-116q0 -81 -38 -120.5t-116 -45.5z" />
    <glyph glyph-name="quotedblleft" unicode="&#x201c;" horiz-adv-x="501" 
d="M295 422v117q0 81 38 120.5t116 45.5l13 -52q-86 -15 -86 -84v-9h52v-138h-133zM63 422v117q0 81 38 120.5t116 45.5l13 -52q-86 -15 -86 -82q0 -2 0.5 -5.5t0.5 -5.5h51v-138h-133z" />
    <glyph glyph-name="quotedblright" unicode="&#x201d;" horiz-adv-x="501" 
d="M284 417l-13 52q86 15 86 83q0 2 -0.5 5.5t-0.5 5.5h-51v137h133v-117q0 -81 -38 -120.5t-116 -45.5zM52 417l-13 52q86 15 86 83q0 2 -0.5 5.5t-0.5 5.5h-51v137h133v-117q0 -81 -38 -120.5t-116 -45.5z" />
    <glyph glyph-name="quotedblbase" unicode="&#x201e;" horiz-adv-x="501" 
d="M279 -145l-13 51q86 17 86 83q0 2 -0.5 5.5t-0.5 5.5h-51v137h133v-116q0 -81 -38 -120.5t-116 -45.5zM47 -145l-13 51q86 17 86 83q0 2 -0.5 5.5t-0.5 5.5h-51v137h133v-116q0 -81 -38 -120.5t-116 -45.5z" />
    <glyph glyph-name="dagger" unicode="&#x2020;" horiz-adv-x="410" 
d="M169 238l9 275l-122 -9v71l121 -9l-12 134h80l-12 -134l121 9v-71l-122 9l9 -275h-72z" />
    <glyph glyph-name="daggerdbl" unicode="&#x2021;" horiz-adv-x="430" 
d="M175 0l12 134l-121 -9v71l121 -9l-8 163l8 163l-121 -9v71l121 -9l-12 134h80l-12 -134l121 9v-71l-121 9l8 -163l-8 -163l121 9v-71l-121 9l12 -134h-80z" />
    <glyph glyph-name="bullet" unicode="&#x2022;" horiz-adv-x="491" 
d="M245 211q-58 0 -99.5 41t-41.5 101q0 58 42 99t99 41q58 0 100 -41.5t42 -100.5q0 -58 -41.5 -99t-100.5 -41z" />
    <glyph glyph-name="ellipsis" unicode="&#x2026;" horiz-adv-x="792" 
d="M594 0v134h130v-134h-130zM331 0v134h130v-134h-130zM68 0v134h130v-134h-130z" />
    <glyph glyph-name="perthousand" unicode="&#x2030;" horiz-adv-x="1228" 
d="M212 350q-72 0 -118 52t-46 127q0 74 46.5 126.5t119.5 52.5q72 0 118 -52t46 -127q0 -74 -46.5 -126.5t-119.5 -52.5zM119 0l512 700h99l-512 -700h-99zM1014 -8q-73 0 -118.5 52t-45.5 127t46.5 127t119.5 52q72 0 118 -52t46 -127q0 -74 -46.5 -126.5t-119.5 -52.5z
M635 -8q-72 0 -118 52t-46 127q0 74 46.5 126.5t119.5 52.5q72 0 118 -52t46 -127q0 -74 -46.5 -126.5t-119.5 -52.5zM214 427q34 0 54.5 29.5t20.5 72.5t-22 72.5t-55 29.5q-34 0 -54.5 -29.5t-20.5 -72.5t22 -72.5t55 -29.5zM1016 69q34 0 54.5 29.5t20.5 72.5t-22 72.5
t-55 29.5q-34 0 -54.5 -29.5t-20.5 -72.5t22 -72.5t55 -29.5zM637 69q34 0 54.5 29.5t20.5 72.5t-22 72.5t-55 29.5q-34 0 -54.5 -29.5t-20.5 -72.5t22 -72.5t55 -29.5z" />
    <glyph glyph-name="guilsinglleft" unicode="&#x2039;" horiz-adv-x="354" 
d="M210 41l-166 219v8l166 220l92 -47l-132 -176l132 -177z" />
    <glyph glyph-name="guilsinglright" unicode="&#x203a;" horiz-adv-x="354" 
d="M145 41l-92 46l132 176l-132 177l92 48l165 -220v-8z" />
    <glyph glyph-name="fraction" unicode="&#x2044;" horiz-adv-x="459" 
d="M-70 -98l467 856h110l-467 -856h-110z" />
    <glyph glyph-name="Euro" unicode="&#x20ac;" horiz-adv-x="720" 
d="M434 -12q-109 0 -185.5 64.5t-105.5 172.5h-91v85h77q-1 13 -1 40q0 31 2 45h-78v85h94q31 104 106 168t178 64q85 0 142.5 -34.5t101.5 -97.5l-93 -69q-34 47 -69 69t-85 22q-52 0 -92.5 -32.5t-61.5 -89.5h215v-85h-234q-2 -26 -2 -45q0 -14 2 -40h234v-85h-216
q21 -59 63 -93t100 -34q47 0 81 23t72 72l88 -64q-47 -68 -104.5 -104.5t-137.5 -36.5z" />
    <glyph glyph-name="afii61352" unicode="&#x2116;" horiz-adv-x="1051" 
d="M78 0v700h117l314 -480v480h125v-700h-107l-324 492v-492h-125zM718 140v76h261v-76h-261zM849 275q-63 0 -104.5 42.5t-41.5 104.5t42 105t105 43t104.5 -42.5t41.5 -104.5t-42 -105t-105 -43zM850 342q31 0 50 23t19 57t-20 57t-50 23q-32 0 -51 -23t-19 -57
q0 -33 20 -56.5t51 -23.5z" />
    <glyph glyph-name="published" unicode="&#x2117;" horiz-adv-x="830" 
d="M414 -12q-151 0 -256 106t-105 256q0 149 106 255.5t257 106.5t256 -106t105 -256q0 -149 -106 -255.5t-257 -106.5zM414 24q138 0 231.5 95.5t93.5 232.5q0 135 -93 229.5t-230 94.5q-138 0 -231.5 -95.5t-93.5 -232.5q0 -135 93 -229.5t230 -94.5zM286 167v380h153
q68 0 107.5 -35t39.5 -95q0 -62 -44.5 -96t-110.5 -34h-71v-120h-74zM360 352h73q36 0 57 18t21 48t-20.5 46.5t-57.5 16.5h-73v-129z" />
    <glyph glyph-name="trademark" unicode="&#x2122;" horiz-adv-x="690" 
d="M341 392v308h63l93 -146l93 146h61v-308h-57v219l-95 -148h-6l-95 148v-219h-57zM121 392v254h-95v54h249v-54h-95v-254h-59z" />
    <glyph glyph-name="partialdiff" unicode="&#x2202;" 
d="M0 0v700h500v-700h-500zM81 49h339l-170 255zM49 96l171 254l-171 254v-508zM450 96v508l-171 -254zM250 395l170 255h-339z" />
    <glyph glyph-name="Delta" unicode="&#x2206;" horiz-adv-x="660" 
d="M28 0l298 701h115l299 -701h-712zM206 109h357l-178 436z" />
    <glyph glyph-name="product" unicode="&#x220f;" 
d="M0 0v700h500v-700h-500zM81 49h339l-170 255zM49 96l171 254l-171 254v-508zM450 96v508l-171 -254zM250 395l170 255h-339z" />
    <glyph glyph-name="summation" unicode="&#x2211;" 
d="M0 0v700h500v-700h-500zM81 49h339l-170 255zM49 96l171 254l-171 254v-508zM450 96v508l-171 -254zM250 395l170 255h-339z" />
    <glyph glyph-name="minus" unicode="&#x2212;" horiz-adv-x="640" 
d="M85 296v112h469v-112h-469z" />
    <glyph glyph-name="radical" unicode="&#x221a;" horiz-adv-x="563" 
d="M253 -156l-178 352l-85 -7l-7 80l141 15l129 -258l255 767h93l-324 -949h-24z" />
    <glyph glyph-name="infinity" unicode="&#x221e;" horiz-adv-x="818" 
d="M218 169q-79 0 -127 52.5t-48 132.5q0 79 47 131t125 52q59 0 102 -30.5t92 -88.5q36 41 56 60.5t57.5 39t79.5 19.5q79 0 126 -51.5t47 -131.5t-46.5 -132.5t-126.5 -52.5q-94 0 -193 113q-34 -37 -55.5 -57t-58.5 -38t-77 -18zM218 269q60 0 131 83q-79 86 -133 86
q-35 0 -56 -25t-21 -60q0 -37 21 -60.5t58 -23.5zM603 269q36 0 56.5 24t20.5 60q0 37 -21.5 61t-58.5 24q-59 0 -131 -86q74 -83 134 -83z" />
    <glyph glyph-name="integral" unicode="&#x222b;" 
d="M0 0v700h500v-700h-500zM81 49h339l-170 255zM49 96l171 254l-171 254v-508zM450 96v508l-171 -254zM250 395l170 255h-339z" />
    <glyph glyph-name="approxequal" unicode="&#x2248;" horiz-adv-x="640" 
d="M131 376l-65 14q29 150 137 150q36 0 121.5 -26.5t108.5 -26.5q59 0 77 59l66 -14q-29 -149 -138 -149q-36 0 -122.5 26.5t-108.5 26.5q-27 0 -47.5 -16.5t-28.5 -43.5zM131 154l-65 14q29 149 137 149q36 0 121.5 -26t108.5 -26q59 0 77 59l66 -15q-29 -148 -138 -148
q-36 0 -122.5 26t-108.5 26q-27 0 -47.5 -16t-28.5 -43z" />
    <glyph glyph-name="notequal" unicode="&#x2260;" horiz-adv-x="640" 
d="M184 59l-81 13l61 101h-81v110h149l82 137h-231v110h298l68 114l81 -13l-61 -101h86v-110h-154l-82 -137h236v-110h-303z" />
    <glyph glyph-name="lessequal" unicode="&#x2264;" horiz-adv-x="640" 
d="M76 9v105h489v-105h-489zM565 151l-489 176v114l489 176v-118l-369 -115l369 -115v-118z" />
    <glyph glyph-name="greaterequal" unicode="&#x2265;" horiz-adv-x="640" 
d="M76 9v105h489v-105h-489zM77 151v118l368 115l-368 115v118l488 -176v-114z" />
    <glyph glyph-name="lozenge" unicode="&#x25ca;" horiz-adv-x="640" 
d="M267 -35l-182 391l182 391h103l184 -391l-184 -391h-103zM320 78l119 278q-80 184 -119 276l-120 -276z" />
    <glyph glyph-name="cyrBreve" unicode="&#xf6d1;" 
d="M249 592q-63 0 -105 37.5t-53 102.5l75 14q19 -68 83 -68q62 0 83 68l74 -14q-10 -65 -52 -102.5t-105 -37.5z" />
    <glyph glyph-name="cyrbreve" unicode="&#xf6d4;" 
d="M249 589q-63 0 -105 37.5t-52 101.5l74 14q21 -68 83 -68t83 68l73 -14q-10 -64 -51.5 -101.5t-104.5 -37.5z" />
    <glyph glyph-name="apple" unicode="&#xf8ff;" 
d="M0 0v700h500v-700h-500zM81 49h339l-170 255zM49 96l171 254l-171 254v-508zM450 96v508l-171 -254zM250 395l170 255h-339z" />
    <glyph glyph-name="ff" unicode="&#xfb00;" horiz-adv-x="752" 
d="M479 0v424h-67v101h67v38q0 88 43 131q42 42 118 42q52 0 99 -14v-102q-39 13 -71 13q-70 0 -70 -80v-29h140v-100h-138v-424h-121zM103 0v424h-67v101h67v38q0 88 43 131q42 42 119 42q51 0 98 -14v-102q-39 13 -71 13q-70 0 -70 -80v-29h140v-100h-138v-424h-121z" />
    <glyph glyph-name="uni00A0" horiz-adv-x="300" 
 />
    </font>
</defs>
</svg>
