<?xml version="1.0" standalone="no"?>
<!DOCTYPE svg PUBLIC "-//W3C//DTD SVG 1.1//EN" "http://www.w3.org/Graphics/SVG/1.1/DTD/svg11.dtd" >
<svg xmlns="http://www.w3.org/2000/svg" xmlns:xlink="http://www.w3.org/1999/xlink" version="1.1">
<metadata>
Created by FontForge 20170731 at Wed Dec 12 22:24:50 2007
 By Aleksey,,,
Copyright (c) 2003 The Hoefler Type Foundry, Inc., dba Hoefler &#38; Frere-Jones. All Rights Reserved.
</metadata>
<defs>
<font id="GothamPro-BlackItalic" horiz-adv-x="500" >
  <font-face 
    font-family="Gotham Pro Black"
    font-weight="400"
    font-style="italic"
    font-stretch="normal"
    units-per-em="1000"
    panose-1="2 0 5 3 4 0 0 9 0 4"
    ascent="800"
    descent="-200"
    x-height="541"
    cap-height="700"
    bbox="-145 -180 1311 932"
    underline-thickness="20"
    underline-position="-173"
    slope="-15"
    unicode-range="U+0020-FB04"
  />
<missing-glyph 
d="M0 0v700h500v-700h-500zM81 49h340l-171 255zM50 95l170 254l-170 256v-510zM451 95v510l-172 -256zM250 395l171 255h-340z" />
    <glyph glyph-name="ff" unicode="ff" horiz-adv-x="836" 
d="M13 0l105 388h-64l41 153h63l3 11q25 98 81.5 141.5t150.5 43.5q67 0 121 -18l-35 -133q-34 12 -64 12q-55 0 -68 -51l-3 -9h122l-40 -150h-118l-105 -388h-190zM431 0l105 388h-64l41 153h63l3 11q25 98 81.5 141.5t150.5 43.5q67 0 121 -18l-35 -133q-34 12 -64 12
q-55 0 -68 -51l-3 -9h122l-40 -150h-118l-105 -388h-190z" />
    <glyph glyph-name="fi" unicode="fi" horiz-adv-x="719" 
d="M13 0l105 388h-64l41 153h63l3 11q25 98 81.5 141.5t150.5 43.5q67 0 121 -18l-35 -133q-34 12 -64 12q-55 0 -68 -51l-3 -9h122l-40 -150h-118l-105 -388h-190zM401 0l145 541h190l-145 -541h-190zM556 590l38 140h198l-38 -140h-198z" />
    <glyph glyph-name="fl" unicode="fl" horiz-adv-x="719" 
d="M13 0l105 388h-64l41 153h63l3 11q25 98 81.5 141.5t150.5 43.5q67 0 121 -18l-35 -133q-34 12 -64 12q-55 0 -68 -51l-3 -9h122l-40 -150h-118l-105 -388h-190zM401 0l196 730h190l-196 -730h-190z" />
    <glyph glyph-name="ffi" unicode="ffi" horiz-adv-x="1137" 
d="M13 0l105 388h-64l41 153h63l3 11q25 98 81.5 141.5t150.5 43.5q67 0 121 -18l-35 -133q-34 12 -64 12q-55 0 -68 -51l-3 -9h122l-40 -150h-118l-105 -388h-190zM431 0l105 388h-64l41 153h63l3 11q25 98 81.5 141.5t150.5 43.5q67 0 121 -18l-35 -133q-34 12 -64 12
q-55 0 -68 -51l-3 -9h122l-40 -150h-118l-105 -388h-190zM819 0l145 541h190l-145 -541h-190zM974 590l38 140h198l-38 -140h-198z" />
    <glyph glyph-name="ffl" unicode="ffl" horiz-adv-x="1137" 
d="M13 0l105 388h-64l41 153h63l3 11q25 98 81.5 141.5t150.5 43.5q67 0 121 -18l-35 -133q-34 12 -64 12q-55 0 -68 -51l-3 -9h122l-40 -150h-118l-105 -388h-190zM431 0l105 388h-64l41 153h63l3 11q25 98 81.5 141.5t150.5 43.5q67 0 121 -18l-35 -133q-34 12 -64 12
q-55 0 -68 -51l-3 -9h122l-40 -150h-118l-105 -388h-190zM819 0l196 730h190l-196 -730h-190z" />
    <glyph glyph-name=".notdef" 
d="M0 0v700h500v-700h-500zM81 49h340l-171 255zM50 95l170 254l-170 256v-510zM451 95v510l-172 -256zM250 395l171 255h-340z" />
    <glyph glyph-name=".null" horiz-adv-x="0" 
 />
    <glyph glyph-name="nonmarkingreturn" horiz-adv-x="333" 
 />
    <glyph glyph-name="space" unicode=" " horiz-adv-x="277" 
 />
    <glyph glyph-name="exclam" unicode="!" horiz-adv-x="322" 
d="M-10 0l45 170h198l-46 -170h-197zM100 228l45 387l23 85h217l-24 -85l-162 -387h-99z" />
    <glyph glyph-name="quotedbl" unicode="&#x22;" horiz-adv-x="540" 
d="M67 341l95 359h204l-1 -5l-198 -354h-100zM326 341l96 359h204l-1 -5l-198 -354h-101z" />
    <glyph glyph-name="numbersign" unicode="#" horiz-adv-x="697" 
d="M38 0l47 135h-82l36 161h103l39 112h-94l36 161h115l46 131h145l-46 -131h126l46 131h145l-46 -131h82l-36 -161h-102l-40 -112h95l-36 -161h-115l-48 -135h-145l48 135h-127l-47 -135h-145zM281 292h135l42 120h-135z" />
    <glyph glyph-name="dollar" unicode="$" horiz-adv-x="656" 
d="M177 -98l31 107q-142 26 -227 113l116 121q78 -65 160 -82l37 122q-97 30 -144.5 72.5t-47.5 117.5q0 97 83.5 162t218.5 65h9l17 58h104l-20 -69q105 -24 178 -88l-107 -130q-52 43 -119 64l-35 -115q94 -31 140.5 -73.5t46.5 -116.5q0 -102 -84.5 -166t-219.5 -64h-5
l-28 -98h-104zM348 152q81 3 81 57q0 16 -10.5 27t-38.5 22zM345 446l30 103q-41 0 -62 -15.5t-21 -39.5q0 -17 11.5 -27.5t41.5 -20.5z" />
    <glyph glyph-name="percent" unicode="%" horiz-adv-x="923" 
d="M68 0l689 700h141l-690 -700h-140zM683 -10q-78 0 -122.5 45.5t-44.5 117.5q0 85 57.5 151t145.5 66q78 0 122.5 -45.5t44.5 -117.5q0 -85 -57.5 -151t-145.5 -66zM688 95q36 0 59 33t23 74q0 28 -15.5 45.5t-40.5 17.5q-36 0 -59 -33t-23 -74q0 -28 15.5 -45.5
t40.5 -17.5zM247 330q-78 0 -123 45.5t-45 117.5q0 85 57.5 151t145.5 66q78 0 122.5 -45.5t44.5 -117.5q0 -85 -57.5 -151t-144.5 -66zM252 435q35 0 58 33t23 74q0 28 -15 45.5t-41 17.5q-35 0 -58 -33t-23 -74q0 -28 15 -45.5t41 -17.5z" />
    <glyph glyph-name="ampersand" unicode="&#x26;" horiz-adv-x="700" 
d="M517 -14l-49 69q-104 -66 -214 -66q-112 0 -176.5 52t-64.5 141q0 78 53 134.5t148 87.5q-32 62 -32 116q0 82 61.5 137.5t160.5 55.5q92 0 150 -50t58 -127q0 -130 -173 -192l61 -83q36 39 72 92l113 -79q-43 -66 -98 -124l57 -77zM278 133q48 0 103 33l-95 135
q-90 -37 -90 -104q0 -28 22 -46t60 -18zM363 442q51 19 72.5 39t21.5 48q0 22 -14.5 37t-37.5 15q-29 0 -47 -20t-18 -48q0 -34 23 -71z" />
    <glyph glyph-name="quotesingle" unicode="'" horiz-adv-x="282" 
d="M67 341l95 359h207l-1 -5l-198 -354h-103z" />
    <glyph glyph-name="parenleft" unicode="(" horiz-adv-x="455" 
d="M242 -143q-197 150 -197 360q0 174 112.5 304t299.5 192l56 -129q-139 -61 -211.5 -158.5t-72.5 -203.5q0 -125 121 -255z" />
    <glyph glyph-name="parenright" unicode=")" horiz-adv-x="455" 
d="M7 -140l-57 129q140 61 212 158.5t72 203.5q0 125 -121 255l109 110q196 -150 196 -360q0 -173 -112.5 -303.5t-298.5 -192.5z" />
    <glyph glyph-name="asterisk" unicode="*" horiz-adv-x="436" 
d="M285 329l-102 27l58 121l-122 -58l-28 103l135 10l-112 77l77 76l76 -112l10 134l102 -27l-58 -122l122 59l28 -104l-135 -10l112 -77l-77 -75l-76 112z" />
    <glyph glyph-name="plus" unicode="+" horiz-adv-x="650" 
d="M191 96l46 172h-168l45 168h168l46 172h175l-46 -172h168l-45 -168h-168l-46 -172h-175z" />
    <glyph glyph-name="comma" unicode="," horiz-adv-x="302" 
d="M-66 -165l-8 73q113 11 131 94h-77l53 195h197l-45 -168q-26 -98 -83.5 -144t-167.5 -50z" />
    <glyph glyph-name="hyphen" unicode="-" horiz-adv-x="417" 
d="M33 229l45 167h328l-44 -167h-329z" />
    <glyph glyph-name="period" unicode="." horiz-adv-x="302" 
d="M-20 0l52 195h198l-53 -195h-197z" />
    <glyph glyph-name="slash" unicode="/" horiz-adv-x="535" 
d="M-145 -128l682 926h166l-682 -926h-166z" />
    <glyph glyph-name="zero" unicode="0" horiz-adv-x="726" 
d="M330 -14q-128 0 -204 80t-76 204q0 112 47 213t137 166t203 65q129 0 205 -80t76 -204q0 -113 -47 -213.5t-137.5 -165.5t-203.5 -65zM347 157q75 0 124.5 84t49.5 178q0 60 -27.5 91.5t-73.5 31.5q-75 0 -124 -84t-49 -178q0 -60 27 -91.5t73 -31.5z" />
    <glyph glyph-name="one" unicode="1" horiz-adv-x="430" 
d="M84 0l138 517l-117 -28l-4 157l222 59h141l-189 -705h-191z" />
    <glyph glyph-name="two" unicode="2" horiz-adv-x="627" 
d="M-33 0l41 150l356 232q81 52 81 104q0 27 -17.5 42t-50.5 15q-70 0 -159 -87l-113 119q124 136 290 136q113 0 179.5 -55.5t66.5 -144.5q0 -66 -41 -122t-143 -122l-171 -109h279l-43 -158h-555z" />
    <glyph glyph-name="three" unicode="3" horiz-adv-x="611" 
d="M256 -14q-189 0 -280 135l132 109q59 -78 148 -78q51 0 84 25t33 58q0 64 -109 64h-67l-4 100l196 144h-262l42 157h506l-38 -139l-214 -149q142 -39 142 -170q0 -114 -86 -185t-223 -71z" />
    <glyph glyph-name="four" unicode="4" horiz-adv-x="679" 
d="M313 0l36 136h-321l-21 142l476 427h205l-113 -424h89l-40 -145h-88l-37 -136h-186zM223 280h165l53 199z" />
    <glyph glyph-name="five" unicode="5" horiz-adv-x="612" 
d="M261 -13q-84 0 -162.5 36t-120.5 88l122 114q76 -74 167 -74q54 0 88 27.5t34 67.5q0 33 -26.5 54t-77.5 21t-99 -29l-99 69l111 339h462l-43 -160h-306l-32 -97q41 14 89 14q97 0 156.5 -52.5t59.5 -141.5q0 -118 -89.5 -197t-233.5 -79z" />
    <glyph glyph-name="six" unicode="6" horiz-adv-x="654" 
d="M317 -13q-126 0 -196 70q-72 72 -72 193q0 98 35.5 191.5t101.5 159.5q112 112 275 112q137 0 226 -76l-97 -137q-61 54 -137 54q-81 0 -136 -55q-39 -39 -59 -96q64 55 160 55q85 0 143 -51t58 -139q0 -116 -88.5 -198.5t-213.5 -82.5zM317 134q48 0 79.5 33.5
t31.5 77.5q0 35 -23.5 56.5t-60.5 21.5q-50 0 -82 -32.5t-32 -77.5q0 -34 22 -54q25 -25 65 -25z" />
    <glyph glyph-name="seven" unicode="7" horiz-adv-x="614" 
d="M-4 0l422 537h-316l44 163h540l-40 -146l-428 -554h-222z" />
    <glyph glyph-name="eight" unicode="8" horiz-adv-x="664" 
d="M305 -10q-118 0 -199.5 54t-81.5 142q0 72 45 120t126 70q-76 45 -76 132q0 80 75 141t204 61q115 0 187 -54.5t72 -136.5q0 -63 -39.5 -107.5t-110.5 -65.5q103 -43 103 -144q0 -90 -84.5 -151t-220.5 -61zM316 133q46 0 77 23.5t31 60.5q0 33 -29 53.5t-71 20.5
q-47 0 -77.5 -23.5t-30.5 -60.5q0 -33 29 -53.5t71 -20.5zM380 417q37 0 67 22t30 59q0 31 -25.5 50t-64.5 19q-37 0 -67 -22t-30 -59q0 -31 26 -50t64 -19z" />
    <glyph glyph-name="nine" unicode="9" horiz-adv-x="654" 
d="M238 -13q-138 0 -233 81l97 136q70 -58 141 -58q80 0 137 57q38 37 57 91q-63 -54 -159 -54q-86 0 -143.5 50.5t-57.5 139.5q0 119 88 201.5t214 82.5t196 -70q73 -73 73 -200q0 -94 -36 -186t-103 -159q-112 -112 -271 -112zM354 374q48 0 80 33.5t32 79.5q0 32 -21 55
q-24 24 -65 24q-49 0 -80.5 -33.5t-31.5 -79.5q0 -36 24 -57.5t62 -21.5z" />
    <glyph glyph-name="colon" unicode=":" horiz-adv-x="307" 
d="M-18 0l53 195h197l-52 -195h-198zM75 346l52 195h198l-53 -195h-197z" />
    <glyph glyph-name="semicolon" unicode=";" horiz-adv-x="307" 
d="M-64 -167l-8 73q113 11 131 94h-77l53 195h197l-45 -168q-26 -98 -83.5 -144t-167.5 -50zM75 346l52 195h198l-53 -195h-197z" />
    <glyph glyph-name="less" unicode="&#x3c;" horiz-adv-x="640" 
d="M513 65l-445 198l48 177l550 198l-50 -185l-356 -110l298 -109z" />
    <glyph glyph-name="equal" unicode="=" horiz-adv-x="640" 
d="M38 134l45 167h491l-44 -167h-492zM110 403l45 167h492l-45 -167h-492z" />
    <glyph glyph-name="greater" unicode="&#x3e;" horiz-adv-x="640" 
d="M20 65l50 185l356 110l-298 109l45 169l445 -198l-48 -177z" />
    <glyph glyph-name="question" unicode="?" horiz-adv-x="540" 
d="M67 0l46 170h197l-46 -170h-197zM168 228l18 168l9 8q182 15 182 87q0 50 -67 50q-65 0 -135 -54l-78 135q102 88 247 88q102 0 164 -52t62 -130q0 -88 -62.5 -147t-188.5 -79l-30 -74h-121z" />
    <glyph glyph-name="at" unicode="@" horiz-adv-x="965" 
d="M462 -154q-185 0 -300 107.5t-115 280.5q0 128 64 238.5t177 176.5t249 66q184 0 293 -98.5t109 -244.5q0 -154 -72 -234.5t-171 -80.5q-53 0 -93 22.5t-59 59.5q-72 -80 -159 -80q-67 0 -111 46.5t-44 125.5q0 121 73 204.5t171 83.5q86 0 129 -72l21 67l147 -40
l-80 -254q-7 -21 -7 -41q0 -59 65 -59q54 0 101.5 69.5t47.5 185.5q0 127 -98 213.5t-263 86.5q-189 0 -319 -130.5t-130 -310.5q0 -156 104 -252.5t271 -96.5q103 0 205 45l16 -37q-104 -47 -222 -47zM460 191q43 0 76 37.5t33 89.5q0 31 -19.5 50t-50.5 19q-44 0 -76 -37
t-32 -89q0 -32 18.5 -51t50.5 -19z" />
    <glyph glyph-name="A" unicode="A" horiz-adv-x="775" 
d="M-74 0l487 705h190l109 -705h-204l-17 125h-270l-84 -125h-211zM319 276h156l-25 201z" />
    <glyph glyph-name="B" unicode="B" horiz-adv-x="714" 
d="M-12 0l188 700h291q134 0 193.5 -47t59.5 -121q0 -67 -41.5 -114t-115.5 -65q106 -38 106 -140q0 -95 -81 -154t-237 -59h-363zM219 156h147q50 0 79 20.5t29 53.5q0 55 -86 55h-134zM291 421h131q51 0 78.5 19t27.5 52q0 52 -84 52h-121z" />
    <glyph glyph-name="C" unicode="C" horiz-adv-x="727" 
d="M382 -14q-147 0 -239 83.5t-92 222.5q0 105 52 200.5t154 158.5t231 63q105 0 178.5 -47t105.5 -130l-168 -90q-44 90 -141 90q-86 0 -147.5 -69t-61.5 -162q0 -66 39 -105t101 -39q79 0 150 71l131 -116q-116 -131 -293 -131z" />
    <glyph glyph-name="D" unicode="D" horiz-adv-x="761" 
d="M-12 0l188 700h226q184 0 274 -90q76 -76 76 -205q0 -161 -115 -276q-129 -129 -367 -129h-282zM229 172h64q129 0 200 71q60 60 60 146q0 61 -35 96q-41 43 -137 43h-56z" />
    <glyph glyph-name="E" unicode="E" horiz-adv-x="669" 
d="M-12 0l188 700h561l-45 -165h-368l-29 -106h334l-41 -153h-334l-30 -111h374l-44 -165h-566z" />
    <glyph glyph-name="F" unicode="F" horiz-adv-x="652" 
d="M-12 0l188 700h560l-46 -170h-365l-32 -119h330l-43 -161h-330l-67 -250h-195z" />
    <glyph glyph-name="G" unicode="G" horiz-adv-x="762" 
d="M387 -14q-65 0 -123.5 18.5t-107 55t-77.5 97t-29 138.5q0 172 127 295.5t322 123.5q99 0 175 -34t115 -85l-130 -126q-72 72 -173 72q-104 0 -171 -69.5t-67 -168.5q0 -71 44.5 -110t112.5 -39q52 0 93 19l28 94h-135l37 142h321l-100 -353q-121 -70 -262 -70z" />
    <glyph glyph-name="H" unicode="H" horiz-adv-x="757" 
d="M-12 0l188 700h195l-71 -262h247l70 262h195l-188 -700h-195l72 266h-247l-71 -266h-195z" />
    <glyph glyph-name="I" unicode="I" horiz-adv-x="325" 
d="M-7 0l188 700h194l-188 -700h-194z" />
    <glyph glyph-name="J" unicode="J" horiz-adv-x="568" 
d="M197 -12q-74 0 -137.5 32t-100.5 91l132 115q50 -68 112 -68q43 0 75 32q28 28 53 119l105 391h193l-114 -428q-38 -142 -104 -208q-78 -76 -214 -76z" />
    <glyph glyph-name="K" unicode="K" horiz-adv-x="722" 
d="M-12 0l188 700h195l-76 -280l289 280h247l-330 -307l156 -393h-210l-101 270l-121 -111l-42 -159h-195z" />
    <glyph glyph-name="L" unicode="L" horiz-adv-x="617" 
d="M-12 0l188 700h195l-142 -530h334l-46 -170h-529z" />
    <glyph glyph-name="M" unicode="M" horiz-adv-x="866" 
d="M-12 0l188 700h196l93 -271l238 271h218l-188 -700h-195l107 402l-251 -274h-4l-103 272l-107 -400h-192z" />
    <glyph glyph-name="N" unicode="N" horiz-adv-x="781" 
d="M-12 0l188 700h181l181 -389l105 389h193l-188 -700h-170l-189 403l-108 -403h-193z" />
    <glyph glyph-name="O" unicode="O" horiz-adv-x="813" 
d="M386 -13q-148 0 -241 89.5t-93 224.5q0 79 31.5 154t85.5 132t132.5 91.5t167.5 34.5q148 0 241 -89.5t93 -224.5q0 -79 -31.5 -154t-85.5 -132t-132.5 -91.5t-167.5 -34.5zM403 161q88 0 145 69.5t57 153.5q0 69 -40.5 112t-112.5 43q-87 0 -144.5 -70t-57.5 -153
q0 -69 40.5 -112t112.5 -43z" />
    <glyph glyph-name="P" unicode="P" horiz-adv-x="672" 
d="M-12 0l188 700h229q166 0 240 -74q55 -55 55 -143q0 -129 -95.5 -205.5t-252.5 -76.5h-115l-54 -201h-195zM277 352h73q71 0 111 29.5t40 79.5q0 29 -20 49q-27 27 -83 27h-72z" />
    <glyph glyph-name="Q" unicode="Q" horiz-adv-x="813" 
d="M603 -45l-45 69q-80 -37 -172 -37q-148 0 -241 89.5t-93 224.5q0 79 31.5 154t85.5 132t132.5 91.5t167.5 34.5q148 0 241 -89.5t93 -224.5q0 -160 -115 -281l53 -72zM402 157q23 0 50 9l-77 104l139 92l60 -94q31 54 31 114q0 70 -40.5 113.5t-112.5 43.5
q-88 0 -145.5 -70t-57.5 -155q0 -70 40.5 -113.5t112.5 -43.5z" />
    <glyph glyph-name="R" unicode="R" horiz-adv-x="720" 
d="M-12 0l188 700h264q168 0 241 -73q54 -54 54 -143q0 -90 -52.5 -154.5t-157.5 -93.5l108 -236h-214l-93 212h-86l-57 -212h-195zM280 364h111q66 0 105 26t39 71q0 27 -18 47q-24 24 -86 24h-105z" />
    <glyph glyph-name="S" unicode="S" horiz-adv-x="645" 
d="M302 -12q-206 0 -325 128l125 129q103 -95 216 -95q35 0 57 14t22 38q0 21 -22 36t-95 43q-92 35 -137 78t-45 115q0 104 84 171t213 67q178 0 287 -104l-120 -134q-89 77 -185 77q-34 0 -55 -14t-21 -36q0 -20 21 -33t96 -43q90 -34 136 -78t46 -117q0 -108 -83.5 -175
t-214.5 -67z" />
    <glyph glyph-name="T" unicode="T" horiz-adv-x="645" 
d="M151 0l143 530h-210l46 170h613l-45 -170h-210l-142 -530h-195z" />
    <glyph glyph-name="U" unicode="U" horiz-adv-x="760" 
d="M342 -13q-135 0 -209 64.5t-74 180.5q0 51 16 112l96 356h196l-99 -370q-10 -37 -10 -66q0 -48 28.5 -75t80.5 -27q57 0 94 37q38 36 59 116l104 385h196l-111 -414q-37 -137 -109 -209q-90 -90 -258 -90z" />
    <glyph glyph-name="V" unicode="V" horiz-adv-x="739" 
d="M202 -5l-93 705h212l39 -440l275 440h219l-471 -705h-181z" />
    <glyph glyph-name="W" unicode="W" horiz-adv-x="1102" 
d="M162 -5l-45 705h201l13 -405l242 407h168l27 -407l230 405h211l-423 -705h-174l-32 398l-245 -398h-173z" />
    <glyph glyph-name="X" unicode="X" horiz-adv-x="713" 
d="M-75 0l341 366l-145 334h213l77 -197l173 197h234l-324 -348l154 -352h-214l-84 216l-190 -216h-235z" />
    <glyph glyph-name="Y" unicode="Y" horiz-adv-x="677" 
d="M159 0l73 271l-141 429h209l69 -262l211 262h232l-391 -450l-67 -250h-195z" />
    <glyph glyph-name="Z" unicode="Z" horiz-adv-x="681" 
d="M-36 0l37 141l446 395h-328l45 164h595l-38 -141l-446 -395h341l-44 -164h-608z" />
    <glyph glyph-name="bracketleft" unicode="[" horiz-adv-x="468" 
d="M-26 -130l223 830h346l-35 -129h-176l-154 -572h176l-34 -129h-346z" />
    <glyph glyph-name="backslash" unicode="\" horiz-adv-x="535" 
d="M316 -128l-207 926h153l207 -926h-153z" />
    <glyph glyph-name="bracketright" unicode="]" horiz-adv-x="468" 
d="M-67 -130l35 129h176l153 572h-176l35 129h346l-223 -830h-346z" />
    <glyph glyph-name="asciicircum" unicode="^" 
d="M89 493l199 206h128l89 -206h-123l-50 97l-102 -97h-141z" />
    <glyph glyph-name="underscore" unicode="_" horiz-adv-x="600" 
d="M-117 -160l31 116h604l-31 -116h-604z" />
    <glyph glyph-name="grave" unicode="`" 
d="M333 587l-111 128l179 57l55 -185h-123z" />
    <glyph glyph-name="a" unicode="a" horiz-adv-x="597" 
d="M152 -11q-67 0 -109 40t-42 107q0 88 65 139.5t173 51.5q68 0 137 -21l2 7q5 22 5 33q0 58 -93 58q-78 0 -146 -27l-27 138q94 33 213 33q120 0 180.5 -45t60.5 -127q0 -36 -11 -78l-80 -298h-187l15 58q-74 -69 -156 -69zM240 106q36 0 68 28t43 70l5 18q-36 12 -71 12
q-45 0 -72 -21t-27 -57q0 -23 15 -36.5t39 -13.5z" />
    <glyph glyph-name="b" unicode="b" horiz-adv-x="672" 
d="M353 -12q-108 0 -164 86l-20 -74h-190l195 730h190l-66 -246q71 69 154 69t137.5 -60t54.5 -162q0 -144 -86.5 -243.5t-204.5 -99.5zM320 146q54 0 93 45.5t39 109.5q0 43 -25.5 69t-66.5 26q-54 0 -94 -46t-40 -108q0 -43 26 -69.5t68 -26.5z" />
    <glyph glyph-name="c" unicode="c" horiz-adv-x="563" 
d="M281 -13q-111 0 -182 64.5t-71 172.5q0 136 95 232t230 96q90 0 148.5 -41t81.5 -107l-149 -77q-29 68 -93 68q-53 0 -91.5 -49t-38.5 -112q0 -41 23.5 -65.5t59.5 -24.5q52 0 102 50l116 -101q-91 -106 -231 -106z" />
    <glyph glyph-name="d" unicode="d" horiz-adv-x="672" 
d="M220 -12q-83 0 -137.5 60t-54.5 162q0 144 86.5 243.5t204.5 99.5q108 0 164 -86l70 263h190l-195 -730h-190l16 57q-72 -69 -154 -69zM312 145q54 0 94 46t40 108q0 43 -26 69.5t-68 26.5q-54 0 -93 -45.5t-39 -109.5q0 -43 25.5 -69t66.5 -26z" />
    <glyph glyph-name="e" unicode="e" horiz-adv-x="601" 
d="M286 -13q-119 0 -188.5 65t-69.5 175q0 127 91 226.5t234 99.5q113 0 171.5 -64.5t58.5 -159.5q0 -54 -21 -111h-359q7 -89 101 -89q56 0 115 43l88 -104q-93 -81 -221 -81zM216 315h193q5 15 5 29q0 30 -19 49.5t-55 19.5q-40 0 -73.5 -25.5t-50.5 -72.5z" />
    <glyph glyph-name="f" unicode="f" horiz-adv-x="418" 
d="M13 0l105 388h-64l41 153h63l3 11q25 98 81.5 141.5t150.5 43.5q67 0 121 -18l-35 -133q-34 12 -64 12q-55 0 -68 -51l-3 -9h122l-40 -150h-118l-105 -388h-190z" />
    <glyph glyph-name="g" unicode="g" horiz-adv-x="668" 
d="M238 -162q-77 0 -154.5 20.5t-130.5 53.5l85 119q92 -56 192 -56q72 0 112 40q28 29 45 87l3 12q-74 -66 -164 -66q-78 0 -135.5 50.5t-57.5 136.5q0 128 82.5 222.5t201.5 94.5q109 0 164 -88l20 77h190l-115 -430q-35 -132 -96 -194q-78 -79 -242 -79zM310 185
q54 0 91 39.5t37 91.5q0 38 -24.5 62t-65.5 24q-53 0 -89.5 -40.5t-36.5 -93.5q0 -38 24 -60.5t64 -22.5z" />
    <glyph glyph-name="h" unicode="h" horiz-adv-x="632" 
d="M-21 0l195 730h190l-67 -251q70 74 155 74q73 0 115 -43.5t42 -118.5q0 -37 -16 -97l-78 -294h-190l76 283q6 21 6 44q0 57 -60 57q-74 0 -101 -98l-77 -286h-190z" />
    <glyph glyph-name="i" unicode="i" horiz-adv-x="301" 
d="M-17 0l145 541h190l-145 -541h-190zM138 590l38 140h198l-38 -140h-198z" />
    <glyph glyph-name="j" unicode="j" horiz-adv-x="303" 
d="M-53 -163q-43 0 -81 7l33 126q12 -3 24 -3q29 0 46 17.5t28 60.5l133 496h190l-140 -520q-28 -103 -83 -143.5t-150 -40.5zM139 590l38 140h198l-38 -140h-198z" />
    <glyph glyph-name="k" unicode="k" horiz-adv-x="599" 
d="M-21 0l196 730h190l-96 -357l181 168h229l-249 -222l106 -319h-203l-58 192l-71 -63l-35 -129h-190z" />
    <glyph glyph-name="l" unicode="l" horiz-adv-x="301" 
d="M-17 0l196 730h190l-196 -730h-190z" />
    <glyph glyph-name="m" unicode="m" horiz-adv-x="968" 
d="M-21 0l145 541h190l-16 -60q70 72 151 72q107 0 141 -94q83 94 196 94q76 0 118 -43t42 -118q0 -38 -16 -98l-79 -294h-189l75 283q7 25 7 44q0 57 -58 57q-72 0 -99 -98l-77 -286h-190l76 283q7 24 7 44q0 57 -58 57q-72 0 -99 -98l-77 -286h-190z" />
    <glyph glyph-name="n" unicode="n" horiz-adv-x="630" 
d="M-21 0l145 541h190l-17 -62q70 74 155 74q73 0 115 -43.5t42 -118.5q0 -37 -16 -97l-78 -294h-190l76 283q6 21 6 44q0 57 -60 57q-74 0 -101 -98l-77 -286h-190z" />
    <glyph glyph-name="o" unicode="o" horiz-adv-x="644" 
d="M295 -13q-121 0 -193 71t-72 181q0 125 92.5 219.5t225.5 94.5q122 0 194 -71t72 -180q0 -126 -92.5 -220.5t-226.5 -94.5zM306 145q54 0 90 46.5t36 103.5q0 45 -26 72.5t-68 27.5q-54 0 -90 -46.5t-36 -102.5q0 -46 26 -73.5t68 -27.5z" />
    <glyph glyph-name="p" unicode="p" horiz-adv-x="672" 
d="M-64 -160l188 701h190l-16 -57q71 69 154 69t137.5 -60t54.5 -162q0 -144 -86.5 -243.5t-204.5 -99.5q-108 0 -164 86l-63 -234h-190zM320 146q54 0 93 45.5t39 109.5q0 43 -25.5 69t-66.5 26q-54 0 -94 -46t-40 -108q0 -43 26 -69.5t68 -26.5z" />
    <glyph glyph-name="q" unicode="q" horiz-adv-x="672" 
d="M310 -180l64 237q-72 -69 -154 -69q-83 0 -137.5 60t-54.5 162q0 144 86.5 243.5t204.5 99.5q108 0 164 -86l20 74h190l-193 -721h-190zM312 145q54 0 94 46t40 108q0 43 -26 69.5t-68 26.5q-54 0 -93 -45.5t-39 -109.5q0 -43 25.5 -69t66.5 -26z" />
    <glyph glyph-name="r" unicode="r" horiz-adv-x="430" 
d="M-21 0l145 541h190l-29 -109q85 126 203 118l-54 -200h-16q-156 0 -205 -187l-44 -163h-190z" />
    <glyph glyph-name="s" unicode="s" horiz-adv-x="511" 
d="M230 -13q-77 0 -147.5 25t-119.5 69l94 111q38 -34 87.5 -53.5t92.5 -19.5q48 0 48 33q0 14 -16 24t-58 27q-75 30 -113.5 64.5t-38.5 93.5q0 83 63.5 137.5t172.5 54.5q69 0 131.5 -22t102.5 -54l-91 -114q-78 58 -153 58q-47 0 -47 -31q0 -13 16 -23.5t59 -27.5
q73 -29 112 -63t39 -95q0 -83 -61 -138.5t-173 -55.5z" />
    <glyph glyph-name="t" unicode="t" horiz-adv-x="430" 
d="M214 -11q-81 0 -122.5 33.5t-41.5 94.5q0 34 10 71l54 200h-64l41 153h64l37 137h190l-37 -137h126l-41 -153h-126l-46 -170q-5 -22 -5 -33q0 -34 43 -34q30 0 72 15l-42 -158q-54 -19 -112 -19z" />
    <glyph glyph-name="u" unicode="u" horiz-adv-x="632" 
d="M183 -12q-73 0 -115 43.5t-42 118.5q0 40 15 97l79 294h190l-76 -283q-7 -24 -7 -44q0 -57 61 -57q75 0 100 98l77 286h190l-144 -541h-190l16 62q-70 -74 -154 -74z" />
    <glyph glyph-name="v" unicode="v" horiz-adv-x="621" 
d="M151 -4l-70 545h195l20 -315l187 315h202l-361 -545h-173z" />
    <glyph glyph-name="w" unicode="w" horiz-adv-x="859" 
d="M103 -4l-19 545h183l-2 -272l157 274h156l11 -276l146 274h185l-313 -545h-162l-13 281l-165 -281h-164z" />
    <glyph glyph-name="x" unicode="x" horiz-adv-x="589" 
d="M-62 0l259 281l-112 260h197l47 -131l109 131h214l-252 -274l114 -267h-197l-49 137l-116 -137h-214z" />
    <glyph glyph-name="y" unicode="y" horiz-adv-x="622" 
d="M94 -163q-84 0 -144 39l85 139q37 -27 75 -27q27 0 47 20l-70 533h193l22 -325l182 325h200l-335 -538q-57 -91 -115.5 -128.5t-139.5 -37.5z" />
    <glyph glyph-name="z" unicode="z" horiz-adv-x="558" 
d="M-40 0l34 125l318 265h-238l40 151h486l-33 -125l-319 -265h249l-40 -151h-497z" />
    <glyph glyph-name="braceleft" unicode="{" horiz-adv-x="497" 
d="M322 -141q-117 13 -165 49.5t-48 96.5q0 32 16 82q16 52 16 76q0 31 -18 46t-70 15h-26l33 126h27q78 0 107 32t42 121q8 54 24.5 91t51 65.5t92 42t142.5 13.5l12 -112q-91 -7 -123 -41.5t-41 -109.5q-10 -87 -45 -127t-122 -50q86 -17 86 -95q0 -27 -14 -71
q-15 -43 -15 -68q0 -31 19 -48.5t72 -30.5z" />
    <glyph glyph-name="bar" unicode="|" horiz-adv-x="356" 
d="M122 -128v926h145v-926h-145z" />
    <glyph glyph-name="braceright" unicode="}" horiz-adv-x="497" 
d="M-40 -141l-12 112q91 7 122.5 41.5t41.5 109.5q11 87 45.5 127t121.5 50q-86 17 -86 95q0 27 14 71q15 43 15 68q0 31 -19 48.5t-72 30.5l53 103q117 -13 165 -49.5t48 -96.5q0 -32 -16 -82q-16 -52 -16 -76q0 -31 18 -46t70 -15h26l-33 -126h-27q-78 0 -107.5 -32
t-41.5 -121q-8 -54 -24.5 -91t-51 -65.5t-92 -42t-142.5 -13.5z" />
    <glyph glyph-name="asciitilde" unicode="~" horiz-adv-x="505" 
d="M129 216l-88 41q28 69 70 106.5t90 37.5q42 0 84 -31q35 -24 52 -24q34 0 66 57l89 -41q-29 -69 -71 -106.5t-90 -37.5q-42 0 -84 31q-34 24 -52 24q-34 0 -66 -57z" />
    <glyph glyph-name="uni00A0" unicode="&#xa0;" horiz-adv-x="277" 
 />
    <glyph glyph-name="exclamdown" unicode="&#xa1;" horiz-adv-x="322" 
d="M-20 0l24 85l162 387h99l-45 -387l-23 -85h-217zM132 530l46 170h197l-45 -170h-198z" />
    <glyph glyph-name="cent" unicode="&#xa2;" horiz-adv-x="585" 
d="M258 -6h-110l42 107q-65 30 -100.5 86t-35.5 132q0 135 93.5 228t232.5 93h21l26 66h110l-35 -89q86 -39 117 -127l-137 -71q-14 37 -42 56l-98 -254q54 4 103 53l108 -96q-88 -103 -228 -103q-23 0 -35 2zM253 247l97 247q-57 -5 -93.5 -55.5t-36.5 -111.5q0 -54 33 -80
z" />
    <glyph glyph-name="sterling" unicode="&#xa3;" horiz-adv-x="631" 
d="M-22 0l31 116l82 28l33 121h-75l36 135h75l15 57q30 116 92 178q77 77 206 77q71 0 127.5 -29t87.5 -75l-131 -118q-38 51 -92 51q-37 0 -64 -27q-23 -21 -36 -69l-13 -45h209l-36 -135h-208l-30 -111h285l-41 -154h-553z" />
    <glyph glyph-name="currency" unicode="&#xa4;" horiz-adv-x="677" 
d="M385 -14q-114 0 -189.5 64.5t-86.5 172.5h-90l28 104h67q6 34 11 50h-65l28 104h65q45 106 131 169.5t205 63.5q178 0 246 -147l-142 -95q-40 75 -119 75q-77 0 -123 -68h169l-27 -101h-180q-8 -26 -12 -52h178l-27 -101h-154q16 -72 95 -72q67 0 126 59l111 -119
q-101 -107 -245 -107z" />
    <glyph glyph-name="yen" unicode="&#xa5;" horiz-adv-x="718" 
d="M190 0l25 93h-184l32 120h184l13 50h-184l32 120h140l-122 317h205l73 -230l188 230h229l-291 -317h138l-32 -120h-184l-13 -50h183l-32 -120h-184l-25 -93h-191z" />
    <glyph glyph-name="brokenbar" unicode="&#xa6;" horiz-adv-x="222" 
d="M33 -89v250h157v-250h-157zM33 411v250h157v-250h-157z" />
    <glyph glyph-name="section" unicode="&#xa7;" horiz-adv-x="625" 
d="M280 -12q-79 0 -147.5 25.5t-109.5 68.5l99 105q32 -29 77 -49t85 -20q53 0 53 30q0 14 -19.5 23.5t-78.5 27.5q-85 25 -131 56.5t-46 83.5q0 101 126 130q-33 35 -33 82q0 69 63.5 116t169.5 47q79 0 148 -25.5t109 -68.5l-98 -105q-31 29 -77 48.5t-86 19.5
q-52 0 -52 -29q0 -14 19.5 -24t77.5 -27q86 -26 131.5 -57.5t45.5 -83.5q0 -99 -125 -130q32 -35 32 -81q0 -70 -63 -116.5t-170 -46.5zM404 292q22 0 36.5 10t14.5 26q0 17 -19.5 28.5t-67.5 27.5q-76 26 -103 26q-22 0 -37 -10t-15 -27q0 -16 19.5 -27.5t67.5 -28.5
q74 -25 104 -25z" />
    <glyph glyph-name="dieresis" unicode="&#xa8;" 
d="M142 587l39 143h166l-39 -143h-166zM361 587l39 143h166l-39 -143h-166z" />
    <glyph glyph-name="copyright" unicode="&#xa9;" horiz-adv-x="830" 
d="M437 -14q-151 0 -256 107t-105 257q0 149 106 256.5t257 107.5t256 -107t105 -257q0 -149 -106 -256.5t-257 -107.5zM437 26q136 0 228.5 95.5t92.5 230.5q0 134 -92 228t-227 94q-136 0 -228.5 -95.5t-92.5 -230.5q0 -134 92 -228t227 -94zM443 156q-87 0 -144.5 57
t-57.5 142q0 83 57.5 141t146.5 58q105 0 162 -79l-81 -64q-35 45 -83 45q-39 0 -65 -29.5t-26 -72.5q0 -42 26 -71t65 -29q47 0 86 46l81 -58q-62 -86 -167 -86z" />
    <glyph glyph-name="ordfeminine" unicode="&#xaa;" horiz-adv-x="395" 
d="M45 270l21 77h288l-21 -77h-288zM182 398q-37 0 -60 22t-23 58q0 49 36 77.5t95 28.5q37 0 75 -13l2 6q3 7 3 16q0 33 -51 33q-42 0 -79 -14l-15 75q51 19 116 19t98.5 -25t33.5 -70q0 -21 -6 -43l-44 -164h-104l9 32q-40 -38 -86 -38zM231 462q20 0 37.5 15.5t22.5 37.5
l3 11q-23 7 -40 7q-23 0 -38 -12t-15 -31q0 -12 8.5 -20t21.5 -8z" />
    <glyph glyph-name="guillemotleft" unicode="&#xab;" horiz-adv-x="630" 
d="M138 28l-108 224l13 49l215 212l105 -96l-166 -161l82 -165zM401 25l-113 235l2 8l241 237l105 -96l-171 -166l77 -155z" />
    <glyph glyph-name="logicalnot" unicode="&#xac;" horiz-adv-x="640" 
d="M382 231l46 172h-317l45 167h491l-91 -339h-174z" />
    <glyph glyph-name="uni00AD" unicode="&#xad;" horiz-adv-x="417" 
d="M33 229l45 167h328l-44 -167h-329z" />
    <glyph glyph-name="registered" unicode="&#xae;" horiz-adv-x="830" 
d="M437 -14q-151 0 -256 107t-105 257q0 149 106 256.5t257 107.5t256 -107t105 -257q0 -149 -106 -256.5t-257 -107.5zM437 26q136 0 228.5 95.5t92.5 230.5q0 134 -92 228t-227 94q-136 0 -228.5 -95.5t-92.5 -230.5q0 -134 92 -228t227 -94zM278 168v385h180
q86 0 129 -43q34 -34 34 -90q0 -85 -80 -118l92 -134h-123l-80 117h-44v-117h-108zM386 368h69q58 0 58 47q0 46 -58 46h-69v-93z" />
    <glyph glyph-name="macron" unicode="&#xaf;" 
d="M149 592l30 116h376l-31 -116h-375z" />
    <glyph glyph-name="degree" unicode="&#xb0;" horiz-adv-x="452" 
d="M260 346q-77 0 -123.5 46t-46.5 116q0 83 58 142t141 59q77 0 123.5 -46.5t46.5 -115.5q0 -83 -58 -142t-141 -59zM265 440q39 0 64 31.5t25 70.5q0 32 -19 52.5t-50 20.5q-40 0 -64.5 -31.5t-24.5 -70.5q0 -32 19 -52.5t50 -20.5z" />
    <glyph glyph-name="plusminus" unicode="&#xb1;" horiz-adv-x="640" 
d="M-8 -16l42 157h491l-42 -157h-491zM209 206l35 132h-169l45 168h169l36 132h174l-36 -132h169l-45 -168h-169l-35 -132h-174z" />
    <glyph glyph-name="twosuperior" unicode="&#xb2;" 
d="M0 0v700h500v-700h-500zM81 49h340l-171 255zM50 95l170 254l-170 256v-510zM451 95v510l-172 -256zM250 395l171 255h-340z" />
    <glyph glyph-name="threesuperior" unicode="&#xb3;" 
d="M0 0v700h500v-700h-500zM81 49h340l-171 255zM50 95l170 254l-170 256v-510zM451 95v510l-172 -256zM250 395l171 255h-340z" />
    <glyph glyph-name="acute" unicode="&#xb4;" 
d="M200 587l155 185l173 -57l-181 -128h-147z" />
    <glyph glyph-name="mu" unicode="&#xb5;" horiz-adv-x="634" 
d="M-64 -160l188 701h190l-79 -293q-12 -43 3 -67t50 -24t63 24t40 67l79 293h190l-145 -541h-190l19 74q-78 -76 -153 -76q-8 0 -22 2l-43 -160h-190z" />
    <glyph glyph-name="paragraph" unicode="&#xb6;" horiz-adv-x="597" 
d="M270 0l56 212q-257 13 -257 209q0 126 91.5 202.5t261.5 76.5h230l-188 -700h-194z" />
    <glyph glyph-name="periodcentered" unicode="&#xb7;" horiz-adv-x="302" 
d="M35 215l52 195h198l-53 -195h-197z" />
    <glyph glyph-name="cedilla" unicode="&#xb8;" 
d="M160 -173l-139 64l125 124h129z" />
    <glyph glyph-name="onesuperior" unicode="&#xb9;" 
d="M0 0v700h500v-700h-500zM81 49h340l-171 255zM50 95l170 254l-170 256v-510zM451 95v510l-172 -256zM250 395l171 255h-340z" />
    <glyph glyph-name="ordmasculine" unicode="&#xba;" horiz-adv-x="402" 
d="M48 270l21 77h283l-20 -77h-284zM249 395q-67 0 -107 39.5t-40 100.5q0 68 51 119.5t125 51.5q66 0 106 -39.5t40 -100.5q0 -68 -51 -119.5t-124 -51.5zM254 482q30 0 49.5 25t19.5 56q0 25 -14 40.5t-37 15.5q-30 0 -49.5 -25t-19.5 -57q0 -24 14 -39.5t37 -15.5z" />
    <glyph glyph-name="guillemotright" unicode="&#xbb;" horiz-adv-x="630" 
d="M99 37l-105 95l171 166l-77 155l142 63l112 -234l-2 -8zM372 28l-105 96l166 161l-82 165l142 63l108 -224l-14 -49z" />
    <glyph glyph-name="onequarter" unicode="&#xbc;" 
d="M0 0v700h500v-700h-500zM81 49h340l-171 255zM50 95l170 254l-170 256v-510zM451 95v510l-172 -256zM250 395l171 255h-340z" />
    <glyph glyph-name="onehalf" unicode="&#xbd;" 
d="M0 0v700h500v-700h-500zM81 49h340l-171 255zM50 95l170 254l-170 256v-510zM451 95v510l-172 -256zM250 395l171 255h-340z" />
    <glyph glyph-name="threequarters" unicode="&#xbe;" 
d="M0 0v700h500v-700h-500zM81 49h340l-171 255zM50 95l170 254l-170 256v-510zM451 95v510l-172 -256zM250 395l171 255h-340z" />
    <glyph glyph-name="questiondown" unicode="&#xbf;" horiz-adv-x="540" 
d="M240 -10q-103 0 -165 52t-62 130q0 87 63 146.5t189 79.5l30 74h120l-17 -168l-10 -8q-181 -15 -181 -87q0 -50 66 -50t135 54l78 -135q-100 -88 -246 -88zM273 530l46 170h198l-46 -170h-198z" />
    <glyph glyph-name="Agrave" unicode="&#xc0;" horiz-adv-x="775" 
d="M-74 0l487 705h190l109 -705h-204l-17 125h-270l-84 -125h-211zM319 276h156l-25 201zM458 747l-111 128l179 57l55 -185h-123z" />
    <glyph glyph-name="Aacute" unicode="&#xc1;" horiz-adv-x="775" 
d="M-74 0l487 705h190l109 -705h-204l-17 125h-270l-84 -125h-211zM319 276h156l-25 201zM425 747l155 185l173 -57l-181 -128h-147z" />
    <glyph glyph-name="Acircumflex" unicode="&#xc2;" horiz-adv-x="775" 
d="M-74 0l487 705h190l109 -705h-204l-17 125h-270l-84 -125h-211zM319 276h156l-25 201zM299 747l172 165h154l84 -165h-113l-68 61l-101 -61h-128z" />
    <glyph glyph-name="Atilde" unicode="&#xc3;" horiz-adv-x="775" 
d="M-74 0l487 705h190l109 -705h-204l-17 125h-270l-84 -125h-211zM319 276h156l-25 201zM390 744l-89 40q28 69 70.5 106.5t90.5 37.5q41 0 84 -30q34 -25 51 -25q34 0 66 57l89 -40q-29 -70 -71 -107t-90 -37q-41 0 -84 30q-36 25 -52 25q-33 0 -65 -57z" />
    <glyph glyph-name="Adieresis" unicode="&#xc4;" horiz-adv-x="775" 
d="M-74 0l487 705h190l109 -705h-204l-17 125h-270l-84 -125h-211zM319 276h156l-25 201zM319 747l39 143h166l-39 -143h-166zM538 747l39 143h166l-39 -143h-166z" />
    <glyph glyph-name="Aring" unicode="&#xc5;" horiz-adv-x="775" 
d="M-74 0q30 44 79.5 115t153.5 222t173 251l70 100q-19 28 -19 61q0 60 43 102.5t104 42.5q54 0 87.5 -32t33.5 -80q0 -59 -44 -100l105 -682h-204l-17 125h-270l-84 -125h-211zM319 276h156l-25 201zM506 698q32 0 52.5 25t20.5 58q0 23 -14 38t-38 15q-31 0 -51.5 -25.5
t-20.5 -57.5q0 -23 14 -38t37 -15z" />
    <glyph glyph-name="AE" unicode="&#xc6;" horiz-adv-x="1080" 
d="M-76 0l550 700h673l-44 -165h-349l-28 -106h313l-41 -153h-313l-31 -111h354l-44 -165h-543l34 125h-223l-97 -125h-211zM348 276h148l71 268h-13z" />
    <glyph glyph-name="Ccedilla" unicode="&#xc7;" horiz-adv-x="727" 
d="M291 -173l-139 64l113 112q-99 30 -156.5 105.5t-57.5 183.5q0 78 31 153t85.5 134.5t137.5 96.5t178 37q107 0 182.5 -47.5t106.5 -129.5l-167 -90q-44 90 -142 90q-86 0 -147.5 -69t-61.5 -161q0 -65 39 -104t101 -39q79 0 150 71l131 -116q-115 -128 -285 -131z" />
    <glyph glyph-name="Egrave" unicode="&#xc8;" horiz-adv-x="669" 
d="M-12 0l188 700h561l-45 -165h-368l-29 -106h334l-41 -153h-334l-30 -111h374l-44 -165h-566zM428 747l-111 128l179 57l55 -185h-123z" />
    <glyph glyph-name="Eacute" unicode="&#xc9;" horiz-adv-x="669" 
d="M-12 0l188 700h561l-45 -165h-368l-29 -106h334l-41 -153h-334l-30 -111h374l-44 -165h-566zM370 747l155 185l173 -57l-181 -128h-147z" />
    <glyph glyph-name="Ecircumflex" unicode="&#xca;" horiz-adv-x="669" 
d="M-12 0l188 700h561l-45 -165h-368l-29 -106h334l-41 -153h-334l-30 -111h374l-44 -165h-566zM260 747l172 165h154l84 -165h-113l-68 61l-101 -61h-128z" />
    <glyph glyph-name="Edieresis" unicode="&#xcb;" horiz-adv-x="669" 
d="M-12 0l188 700h561l-45 -165h-368l-29 -106h334l-41 -153h-334l-30 -111h374l-44 -165h-566zM273 747l39 143h166l-39 -143h-166zM492 747l39 143h166l-39 -143h-166z" />
    <glyph glyph-name="Igrave" unicode="&#xcc;" horiz-adv-x="325" 
d="M-7 0l188 700h194l-188 -700h-194zM240 747l-111 128l179 57l55 -185h-123z" />
    <glyph glyph-name="Iacute" unicode="&#xcd;" horiz-adv-x="325" 
d="M-7 0l188 700h194l-188 -700h-194zM199 747l155 185l173 -57l-181 -128h-147z" />
    <glyph glyph-name="Icircumflex" unicode="&#xce;" horiz-adv-x="325" 
d="M-7 0l188 700h194l-188 -700h-194zM76 747l172 165h154l84 -165h-113l-68 61l-101 -61h-128z" />
    <glyph glyph-name="Idieresis" unicode="&#xcf;" horiz-adv-x="325" 
d="M-7 0l188 700h194l-188 -700h-194zM97 747l39 143h166l-39 -143h-166zM316 747l39 143h166l-39 -143h-166z" />
    <glyph glyph-name="Eth" unicode="&#xd0;" horiz-adv-x="800" 
d="M34 0l73 276h-84l42 153h84l73 271h221q184 0 267 -81t83 -214q0 -173 -130 -289t-352 -116h-277zM267 166h66q117 0 192.5 62.5t75.5 161.5q0 143 -177 143h-58l-28 -104h114l-41 -153h-114z" />
    <glyph glyph-name="Ntilde" unicode="&#xd1;" horiz-adv-x="781" 
d="M-12 0l188 700h181l181 -389l105 389h193l-188 -700h-170l-189 403l-108 -403h-193zM388 744l-89 40q28 69 70.5 106.5t90.5 37.5q41 0 84 -30q34 -25 51 -25q34 0 66 57l89 -40q-29 -70 -71 -107t-90 -37q-41 0 -84 30q-36 25 -52 25q-33 0 -65 -57z" />
    <glyph glyph-name="Ograve" unicode="&#xd2;" horiz-adv-x="813" 
d="M386 -13q-148 0 -241 89.5t-93 224.5q0 79 31.5 154t85.5 132t132.5 91.5t167.5 34.5q148 0 241 -89.5t93 -224.5q0 -79 -31.5 -154t-85.5 -132t-132.5 -91.5t-167.5 -34.5zM403 161q88 0 145 69.5t57 153.5q0 69 -40.5 112t-112.5 43q-87 0 -144.5 -70t-57.5 -153
q0 -69 40.5 -112t112.5 -43zM455 747l-111 128l179 57l55 -185h-123z" />
    <glyph glyph-name="Oacute" unicode="&#xd3;" horiz-adv-x="813" 
d="M386 -13q-148 0 -241 89.5t-93 224.5q0 79 31.5 154t85.5 132t132.5 91.5t167.5 34.5q148 0 241 -89.5t93 -224.5q0 -79 -31.5 -154t-85.5 -132t-132.5 -91.5t-167.5 -34.5zM403 161q88 0 145 69.5t57 153.5q0 69 -40.5 112t-112.5 43q-87 0 -144.5 -70t-57.5 -153
q0 -69 40.5 -112t112.5 -43zM394 747l155 185l173 -57l-181 -128h-147z" />
    <glyph glyph-name="Ocircumflex" unicode="&#xd4;" horiz-adv-x="813" 
d="M386 -13q-148 0 -241 89.5t-93 224.5q0 79 31.5 154t85.5 132t132.5 91.5t167.5 34.5q148 0 241 -89.5t93 -224.5q0 -79 -31.5 -154t-85.5 -132t-132.5 -91.5t-167.5 -34.5zM403 161q88 0 145 69.5t57 153.5q0 69 -40.5 112t-112.5 43q-87 0 -144.5 -70t-57.5 -153
q0 -69 40.5 -112t112.5 -43zM296 747l172 165h154l84 -165h-113l-68 61l-101 -61h-128z" />
    <glyph glyph-name="Otilde" unicode="&#xd5;" horiz-adv-x="813" 
d="M386 -13q-148 0 -241 89.5t-93 224.5q0 79 31.5 154t85.5 132t132.5 91.5t167.5 34.5q148 0 241 -89.5t93 -224.5q0 -79 -31.5 -154t-85.5 -132t-132.5 -91.5t-167.5 -34.5zM403 161q88 0 145 69.5t57 153.5q0 69 -40.5 112t-112.5 43q-87 0 -144.5 -70t-57.5 -153
q0 -69 40.5 -112t112.5 -43zM390 744l-89 40q28 69 70.5 106.5t90.5 37.5q41 0 84 -30q34 -25 51 -25q34 0 66 57l89 -40q-29 -70 -71 -107t-90 -37q-41 0 -84 30q-36 25 -52 25q-33 0 -65 -57z" />
    <glyph glyph-name="Odieresis" unicode="&#xd6;" horiz-adv-x="813" 
d="M386 -13q-148 0 -241 89.5t-93 224.5q0 79 31.5 154t85.5 132t132.5 91.5t167.5 34.5q148 0 241 -89.5t93 -224.5q0 -79 -31.5 -154t-85.5 -132t-132.5 -91.5t-167.5 -34.5zM403 161q88 0 145 69.5t57 153.5q0 69 -40.5 112t-112.5 43q-87 0 -144.5 -70t-57.5 -153
q0 -69 40.5 -112t112.5 -43zM318 747l39 143h166l-39 -143h-166zM537 747l39 143h166l-39 -143h-166z" />
    <glyph glyph-name="multiply" unicode="&#xd7;" horiz-adv-x="640" 
d="M161 6l-108 109l158 158l-158 158l108 109l158 -159l159 159l108 -109l-158 -158l158 -158l-108 -109l-159 158z" />
    <glyph glyph-name="Oslash" unicode="&#xd8;" horiz-adv-x="813" 
d="M386 -13q-126 0 -212 66l-63 -58h-147l141 128q-53 78 -53 178q0 79 31.5 154t85.5 132t132.5 91.5t167.5 34.5q128 0 219 -70l68 62h147l-149 -135q49 -74 49 -171q0 -79 -31.5 -154t-85.5 -132t-132.5 -91.5t-167.5 -34.5zM403 155q89 0 148.5 72t59.5 158q0 27 -8 53
l-287 -262q39 -21 87 -21zM255 253l292 265q-38 27 -95 27q-89 0 -148 -72t-59 -158q0 -35 10 -62z" />
    <glyph glyph-name="Ugrave" unicode="&#xd9;" horiz-adv-x="760" 
d="M342 -13q-135 0 -209 64.5t-74 180.5q0 51 16 112l96 356h196l-99 -370q-10 -37 -10 -66q0 -48 28.5 -75t80.5 -27q57 0 94 37q38 36 59 116l104 385h196l-111 -414q-37 -137 -109 -209q-90 -90 -258 -90zM453 745l-111 128l179 57l55 -185h-123z" />
    <glyph glyph-name="Uacute" unicode="&#xda;" horiz-adv-x="760" 
d="M342 -13q-135 0 -209 64.5t-74 180.5q0 51 16 112l96 356h196l-99 -370q-10 -37 -10 -66q0 -48 28.5 -75t80.5 -27q57 0 94 37q38 36 59 116l104 385h196l-111 -414q-37 -137 -109 -209q-90 -90 -258 -90zM406 745l155 185l173 -57l-181 -128h-147z" />
    <glyph glyph-name="Ucircumflex" unicode="&#xdb;" horiz-adv-x="760" 
d="M342 -13q-135 0 -209 64.5t-74 180.5q0 51 16 112l96 356h196l-99 -370q-10 -37 -10 -66q0 -48 28.5 -75t80.5 -27q57 0 94 37q38 36 59 116l104 385h196l-111 -414q-37 -137 -109 -209q-90 -90 -258 -90zM294 747l172 165h154l84 -165h-113l-68 61l-101 -61h-128z" />
    <glyph glyph-name="Udieresis" unicode="&#xdc;" horiz-adv-x="760" 
d="M342 -13q-135 0 -209 64.5t-74 180.5q0 51 16 112l96 356h196l-99 -370q-10 -37 -10 -66q0 -48 28.5 -75t80.5 -27q57 0 94 37q38 36 59 116l104 385h196l-111 -414q-37 -137 -109 -209q-90 -90 -258 -90zM314 747l39 143h166l-39 -143h-166zM533 747l39 143h166
l-39 -143h-166z" />
    <glyph glyph-name="Yacute" unicode="&#xdd;" horiz-adv-x="677" 
d="M159 0l73 271l-141 429h209l69 -262l211 262h232l-391 -450l-67 -250h-195zM357 747l155 185l173 -57l-181 -128h-147z" />
    <glyph glyph-name="Thorn" unicode="&#xde;" horiz-adv-x="682" 
d="M-12 0l188 700h195l-26 -100h37q165 0 238 -73q54 -55 54 -141q0 -129 -94.5 -204.5t-249.5 -75.5h-119l-28 -106h-195zM253 260h73q70 0 110 29.5t40 78.5q0 30 -20 50q-26 26 -83 26h-71z" />
    <glyph glyph-name="germandbls" unicode="&#xdf;" horiz-adv-x="639" 
d="M235 -3l36 138q71 0 104.5 26t33.5 66q0 63 -94 71l27 101q121 25 121 115q0 31 -18.5 49t-45.5 18q-72 0 -102 -110l-126 -471h-190l129 479q32 120 94 184q75 75 202 75q106 0 170 -54t64 -142q0 -73 -40 -125t-117 -74q106 -39 106 -134q0 -99 -90.5 -160.5
t-263.5 -51.5z" />
    <glyph glyph-name="agrave" unicode="&#xe0;" horiz-adv-x="597" 
d="M152 -11q-67 0 -109 40t-42 107q0 88 65 139.5t173 51.5q68 0 137 -21l2 7q5 22 5 33q0 58 -93 58q-78 0 -146 -27l-27 138q94 33 213 33q120 0 180.5 -45t60.5 -127q0 -36 -11 -78l-80 -298h-187l15 58q-74 -69 -156 -69zM240 106q36 0 68 28t43 70l5 18q-36 12 -71 12
q-45 0 -72 -21t-27 -57q0 -23 15 -36.5t39 -13.5zM334 587l-111 128l179 57l55 -185h-123z" />
    <glyph glyph-name="aacute" unicode="&#xe1;" horiz-adv-x="597" 
d="M152 -11q-67 0 -109 40t-42 107q0 88 65 139.5t173 51.5q68 0 137 -21l2 7q5 22 5 33q0 58 -93 58q-78 0 -146 -27l-27 138q94 33 213 33q120 0 180.5 -45t60.5 -127q0 -36 -11 -78l-80 -298h-187l15 58q-74 -69 -156 -69zM240 106q36 0 68 28t43 70l5 18q-36 12 -71 12
q-45 0 -72 -21t-27 -57q0 -23 15 -36.5t39 -13.5zM279 587l155 185l173 -57l-181 -128h-147z" />
    <glyph glyph-name="acircumflex" unicode="&#xe2;" horiz-adv-x="597" 
d="M152 -11q-67 0 -109 40t-42 107q0 88 65 139.5t173 51.5q68 0 137 -21l2 7q5 22 5 33q0 58 -93 58q-78 0 -146 -27l-27 138q94 33 213 33q120 0 180.5 -45t60.5 -127q0 -36 -11 -78l-80 -298h-187l15 58q-74 -69 -156 -69zM240 106q36 0 68 28t43 70l5 18q-36 12 -71 12
q-45 0 -72 -21t-27 -57q0 -23 15 -36.5t39 -13.5zM176 587l172 165h154l84 -165h-113l-68 61l-101 -61h-128z" />
    <glyph glyph-name="atilde" unicode="&#xe3;" horiz-adv-x="597" 
d="M152 -11q-67 0 -109 40t-42 107q0 88 65 139.5t173 51.5q68 0 137 -21l2 7q5 22 5 33q0 58 -93 58q-78 0 -146 -27l-27 138q94 33 213 33q120 0 180.5 -45t60.5 -127q0 -36 -11 -78l-80 -298h-187l15 58q-74 -69 -156 -69zM240 106q36 0 68 28t43 70l5 18q-36 12 -71 12
q-45 0 -72 -21t-27 -57q0 -23 15 -36.5t39 -13.5zM257 584l-89 40q28 69 70.5 106.5t90.5 37.5q41 0 84 -30q34 -25 51 -25q34 0 66 57l89 -40q-29 -70 -71 -107t-90 -37q-41 0 -84 30q-36 25 -52 25q-33 0 -65 -57z" />
    <glyph glyph-name="adieresis" unicode="&#xe4;" horiz-adv-x="597" 
d="M152 -11q-67 0 -109 40t-42 107q0 88 65 139.5t173 51.5q68 0 137 -21l2 7q5 22 5 33q0 58 -93 58q-78 0 -146 -27l-27 138q94 33 213 33q120 0 180.5 -45t60.5 -127q0 -36 -11 -78l-80 -298h-187l15 58q-74 -69 -156 -69zM240 106q36 0 68 28t43 70l5 18q-36 12 -71 12
q-45 0 -72 -21t-27 -57q0 -23 15 -36.5t39 -13.5zM190 588l39 143h166l-39 -143h-166zM409 588l39 143h166l-39 -143h-166z" />
    <glyph glyph-name="aring" unicode="&#xe5;" horiz-adv-x="597" 
d="M152 -11q-67 0 -109 40t-42 107q0 88 65 139.5t173 51.5q68 0 137 -21l2 7q5 22 5 33q0 58 -93 58q-78 0 -146 -27l-27 138q94 33 213 33q120 0 180.5 -45t60.5 -127q0 -36 -11 -78l-80 -298h-187l15 58q-74 -69 -156 -69zM240 106q36 0 68 28t43 70l5 18q-36 12 -71 12
q-45 0 -72 -21t-27 -57q0 -23 15 -36.5t39 -13.5zM402 592q-54 0 -87 32t-33 80q0 60 43 102.5t104 42.5q54 0 87 -32t33 -80q0 -59 -43 -102t-104 -43zM405 653q32 0 52.5 25t20.5 58q0 22 -14.5 37.5t-37.5 15.5q-32 0 -52.5 -25.5t-20.5 -57.5q0 -23 14 -38t38 -15z" />
    <glyph glyph-name="ae" unicode="&#xe6;" horiz-adv-x="931" 
d="M174 -11q-80 0 -126.5 39.5t-46.5 107.5q0 88 65 139.5t173 51.5q68 0 137 -21l2 7q5 22 5 33q0 58 -93 58q-78 0 -146 -27l-27 138q94 33 213 33q124 0 176 -64q84 69 185 69q108 0 165 -64.5t57 -159.5q0 -54 -21 -111h-359q7 -89 101 -89q56 0 115 43l88 -104
q-91 -81 -224 -81q-138 0 -206 98q-97 -96 -233 -96zM250 105q66 0 123 54q-7 27 -9 59q-37 16 -79 16q-45 0 -72 -21t-27 -57q0 -23 17 -37t47 -14zM546 315h193q5 15 5 29q0 30 -19 49.5t-55 19.5q-40 0 -73.5 -25.5t-50.5 -72.5z" />
    <glyph glyph-name="ccedilla" unicode="&#xe7;" horiz-adv-x="563" 
d="M195 -173l-139 64l116 115q-67 27 -105.5 83.5t-38.5 134.5q0 136 95 232t230 96q90 0 148.5 -41t81.5 -107l-149 -77q-29 68 -93 68q-53 0 -91.5 -49t-38.5 -112q0 -40 23 -65t58 -25q55 0 104 50l116 -101q-88 -101 -218 -106z" />
    <glyph glyph-name="egrave" unicode="&#xe8;" horiz-adv-x="601" 
d="M286 -13q-119 0 -188.5 65t-69.5 175q0 127 91 226.5t234 99.5q113 0 171.5 -64.5t58.5 -159.5q0 -54 -21 -111h-359q7 -89 101 -89q56 0 115 43l88 -104q-93 -81 -221 -81zM216 315h193q5 15 5 29q0 30 -19 49.5t-55 19.5q-40 0 -73.5 -25.5t-50.5 -72.5zM330 587
l-111 128l179 57l55 -185h-123z" />
    <glyph glyph-name="eacute" unicode="&#xe9;" horiz-adv-x="601" 
d="M286 -13q-119 0 -188.5 65t-69.5 175q0 127 91 226.5t234 99.5q113 0 171.5 -64.5t58.5 -159.5q0 -54 -21 -111h-359q7 -89 101 -89q56 0 115 43l88 -104q-93 -81 -221 -81zM216 315h193q5 15 5 29q0 30 -19 49.5t-55 19.5q-40 0 -73.5 -25.5t-50.5 -72.5zM274 587
l155 185l173 -57l-181 -128h-147z" />
    <glyph glyph-name="ecircumflex" unicode="&#xea;" horiz-adv-x="601" 
d="M286 -13q-119 0 -188.5 65t-69.5 175q0 127 91 226.5t234 99.5q113 0 171.5 -64.5t58.5 -159.5q0 -54 -21 -111h-359q7 -89 101 -89q56 0 115 43l88 -104q-93 -81 -221 -81zM216 315h193q5 15 5 29q0 30 -19 49.5t-55 19.5q-40 0 -73.5 -25.5t-50.5 -72.5zM168 587
l172 165h154l84 -165h-113l-68 61l-101 -61h-128z" />
    <glyph glyph-name="edieresis" unicode="&#xeb;" horiz-adv-x="601" 
d="M286 -13q-119 0 -188.5 65t-69.5 175q0 127 91 226.5t234 99.5q113 0 171.5 -64.5t58.5 -159.5q0 -54 -21 -111h-359q7 -89 101 -89q56 0 115 43l88 -104q-93 -81 -221 -81zM216 315h193q5 15 5 29q0 30 -19 49.5t-55 19.5q-40 0 -73.5 -25.5t-50.5 -72.5zM185 587
l39 143h166l-39 -143h-166zM404 587l39 143h166l-39 -143h-166z" />
    <glyph glyph-name="igrave" unicode="&#xec;" horiz-adv-x="301" 
d="M-17 0l145 541h190l-145 -541h-190zM198 587l-111 128l179 57l55 -185h-123z" />
    <glyph glyph-name="iacute" unicode="&#xed;" horiz-adv-x="301" 
d="M-17 0l145 541h190l-145 -541h-190zM138 587l155 185l173 -57l-181 -128h-147z" />
    <glyph glyph-name="icircumflex" unicode="&#xee;" horiz-adv-x="301" 
d="M-17 0l145 541h190l-145 -541h-190zM24 587l172 165h154l84 -165h-113l-68 61l-101 -61h-128z" />
    <glyph glyph-name="idieresis" unicode="&#xef;" horiz-adv-x="301" 
d="M-17 0l145 541h190l-145 -541h-190zM41 587l39 143h166l-39 -143h-166zM260 587l39 143h166l-39 -143h-166z" />
    <glyph glyph-name="eth" unicode="&#xf0;" horiz-adv-x="642" 
d="M288 -12q-117 0 -189.5 65.5t-72.5 167.5q0 107 77 183t194 76q76 0 131 -41l-55 119l-131 -45l-41 89l133 42l-39 86h181l15 -34l121 41l41 -89l-124 -39l39 -89q44 -98 44 -199q0 -145 -88 -239t-236 -94zM301 146q52 0 86 35t34 82q0 39 -26 64t-66 25
q-51 0 -85.5 -34t-34.5 -82q0 -40 26.5 -65t65.5 -25z" />
    <glyph glyph-name="ntilde" unicode="&#xf1;" horiz-adv-x="630" 
d="M-21 0l145 541h190l-17 -62q70 74 155 74q73 0 115 -43.5t42 -118.5q0 -37 -16 -97l-78 -294h-190l76 283q6 21 6 44q0 57 -60 57q-74 0 -101 -98l-77 -286h-190zM268 584l-89 40q28 69 70.5 106.5t90.5 37.5q41 0 84 -30q34 -25 51 -25q34 0 66 57l89 -40
q-29 -70 -71 -107t-90 -37q-41 0 -84 30q-36 25 -52 25q-33 0 -65 -57z" />
    <glyph glyph-name="ograve" unicode="&#xf2;" horiz-adv-x="644" 
d="M295 -13q-121 0 -193 71t-72 181q0 125 92.5 219.5t225.5 94.5q122 0 194 -71t72 -180q0 -126 -92.5 -220.5t-226.5 -94.5zM306 145q54 0 90 46.5t36 103.5q0 45 -26 72.5t-68 27.5q-54 0 -90 -46.5t-36 -102.5q0 -46 26 -73.5t68 -27.5zM339 587l-111 128l179 57
l55 -185h-123z" />
    <glyph glyph-name="oacute" unicode="&#xf3;" horiz-adv-x="644" 
d="M295 -13q-121 0 -193 71t-72 181q0 125 92.5 219.5t225.5 94.5q122 0 194 -71t72 -180q0 -126 -92.5 -220.5t-226.5 -94.5zM306 145q54 0 90 46.5t36 103.5q0 45 -26 72.5t-68 27.5q-54 0 -90 -46.5t-36 -102.5q0 -46 26 -73.5t68 -27.5zM281 587l155 185l173 -57
l-181 -128h-147z" />
    <glyph glyph-name="ocircumflex" unicode="&#xf4;" horiz-adv-x="644" 
d="M295 -13q-121 0 -193 71t-72 181q0 125 92.5 219.5t225.5 94.5q122 0 194 -71t72 -180q0 -126 -92.5 -220.5t-226.5 -94.5zM306 145q54 0 90 46.5t36 103.5q0 45 -26 72.5t-68 27.5q-54 0 -90 -46.5t-36 -102.5q0 -46 26 -73.5t68 -27.5zM172 587l172 165h154l84 -165
h-113l-68 61l-101 -61h-128z" />
    <glyph glyph-name="otilde" unicode="&#xf5;" horiz-adv-x="644" 
d="M295 -13q-121 0 -193 71t-72 181q0 125 92.5 219.5t225.5 94.5q122 0 194 -71t72 -180q0 -126 -92.5 -220.5t-226.5 -94.5zM306 145q54 0 90 46.5t36 103.5q0 45 -26 72.5t-68 27.5q-54 0 -90 -46.5t-36 -102.5q0 -46 26 -73.5t68 -27.5zM259 584l-89 40
q28 69 70.5 106.5t90.5 37.5q41 0 84 -30q34 -25 51 -25q34 0 66 57l89 -40q-29 -70 -71 -107t-90 -37q-41 0 -84 30q-36 25 -52 25q-33 0 -65 -57z" />
    <glyph glyph-name="odieresis" unicode="&#xf6;" horiz-adv-x="644" 
d="M295 -13q-121 0 -193 71t-72 181q0 125 92.5 219.5t225.5 94.5q122 0 194 -71t72 -180q0 -126 -92.5 -220.5t-226.5 -94.5zM306 145q54 0 90 46.5t36 103.5q0 45 -26 72.5t-68 27.5q-54 0 -90 -46.5t-36 -102.5q0 -46 26 -73.5t68 -27.5zM187 587l39 143h166l-39 -143
h-166zM406 587l39 143h166l-39 -143h-166z" />
    <glyph glyph-name="divide" unicode="&#xf7;" horiz-adv-x="640" 
d="M166 34l47 175h178l-47 -175h-178zM75 271l45 167h491l-45 -167h-491zM291 500l47 175h178l-47 -175h-178z" />
    <glyph glyph-name="oslash" unicode="&#xf8;" horiz-adv-x="644" 
d="M295 -12q-100 0 -169 51l-49 -44h-133l122 109q-36 58 -36 138q0 123 92.5 217t225.5 94q103 0 172 -52l50 45h133l-124 -111q35 -58 35 -136q0 -123 -93 -217t-226 -94zM304 138q58 0 97 49t39 109q0 9 -2 23l-187 -168q24 -13 53 -13zM206 219l189 169q-22 14 -55 14
q-58 0 -97 -48.5t-39 -108.5q0 -8 2 -26z" />
    <glyph glyph-name="ugrave" unicode="&#xf9;" horiz-adv-x="632" 
d="M183 -12q-73 0 -115 43.5t-42 118.5q0 40 15 97l79 294h190l-76 -283q-7 -24 -7 -44q0 -57 61 -57q75 0 100 98l77 286h190l-144 -541h-190l16 62q-70 -74 -154 -74zM366 587l-111 128l179 57l55 -185h-123z" />
    <glyph glyph-name="uacute" unicode="&#xfa;" horiz-adv-x="632" 
d="M183 -12q-73 0 -115 43.5t-42 118.5q0 40 15 97l79 294h190l-76 -283q-7 -24 -7 -44q0 -57 61 -57q75 0 100 98l77 286h190l-144 -541h-190l16 62q-70 -74 -154 -74zM297 587l155 185l173 -57l-181 -128h-147z" />
    <glyph glyph-name="ucircumflex" unicode="&#xfb;" horiz-adv-x="632" 
d="M183 -12q-73 0 -115 43.5t-42 118.5q0 40 15 97l79 294h190l-76 -283q-7 -24 -7 -44q0 -57 61 -57q75 0 100 98l77 286h190l-144 -541h-190l16 62q-70 -74 -154 -74zM190 587l172 165h154l84 -165h-113l-68 61l-101 -61h-128z" />
    <glyph glyph-name="udieresis" unicode="&#xfc;" horiz-adv-x="632" 
d="M183 -12q-73 0 -115 43.5t-42 118.5q0 40 15 97l79 294h190l-76 -283q-7 -24 -7 -44q0 -57 61 -57q75 0 100 98l77 286h190l-144 -541h-190l16 62q-70 -74 -154 -74zM208 587l39 143h166l-39 -143h-166zM427 587l39 143h166l-39 -143h-166z" />
    <glyph glyph-name="yacute" unicode="&#xfd;" horiz-adv-x="622" 
d="M94 -163q-84 0 -144 39l85 139q37 -27 75 -27q27 0 47 20l-70 533h193l22 -325l182 325h200l-335 -538q-57 -91 -115.5 -128.5t-139.5 -37.5zM299 587l155 185l173 -57l-181 -128h-147z" />
    <glyph glyph-name="thorn" unicode="&#xfe;" horiz-adv-x="672" 
d="M-64 -160l238 890h190l-66 -246q71 69 154 69t137.5 -60t54.5 -162q0 -144 -86.5 -243.5t-204.5 -99.5q-108 0 -164 86l-63 -234h-190zM320 146q54 0 93 45.5t39 109.5q0 43 -25.5 69t-66.5 26q-54 0 -94 -46t-40 -108q0 -43 26 -69.5t68 -26.5z" />
    <glyph glyph-name="ydieresis" unicode="&#xff;" horiz-adv-x="622" 
d="M94 -163q-84 0 -144 39l85 139q37 -27 75 -27q27 0 47 20l-70 533h193l22 -325l182 325h200l-335 -538q-57 -91 -115.5 -128.5t-139.5 -37.5zM195 587l39 143h166l-39 -143h-166zM414 587l39 143h166l-39 -143h-166z" />
    <glyph glyph-name="dotlessi" unicode="&#x131;" horiz-adv-x="301" 
d="M-17 0l145 541h190l-145 -541h-190z" />
    <glyph glyph-name="Lslash" unicode="&#x141;" horiz-adv-x="662" 
d="M35 0l66 245l-82 -22l47 173l82 22l75 282h192l-60 -225l192 53l-46 -174l-192 -52l-36 -132h334l-46 -170h-526z" />
    <glyph glyph-name="lslash" unicode="&#x142;" horiz-adv-x="398" 
d="M32 0l71 263l-88 -23l46 170l88 24l79 296h190l-65 -242l88 24l-46 -171l-88 -24l-85 -317h-190z" />
    <glyph glyph-name="OE" unicode="&#x152;" horiz-adv-x="1080" 
d="M401 0q-184 0 -276 92q-74 74 -74 203q0 161 115 276q129 129 367 129h614l-44 -165h-349l-28 -106h313l-41 -153h-313l-31 -111h354l-44 -165h-563zM422 172h42l96 356h-49q-129 0 -200 -71q-60 -60 -60 -146q0 -61 35 -96q41 -43 136 -43z" />
    <glyph glyph-name="oe" unicode="&#x153;" horiz-adv-x="1002" 
d="M296 -12q-122 0 -194 71.5t-72 182.5q0 124 92 217.5t226 93.5q131 0 196 -90q87 90 212 90q111 0 169 -64.5t58 -159.5q0 -54 -21 -111h-359q7 -89 102 -89q55 0 114 43l88 -104q-91 -81 -224 -81q-123 0 -186 85q-84 -84 -201 -84zM305 146q55 0 91 45t36 103
q0 45 -26 73t-68 28q-54 0 -90 -45.5t-36 -102.5q0 -45 25.5 -73t67.5 -28zM616 315h194q4 12 4 29q0 30 -19 49.5t-54 19.5q-40 0 -74 -25.5t-51 -72.5z" />
    <glyph glyph-name="Scaron" unicode="&#x160;" horiz-adv-x="645" 
d="M302 -12q-206 0 -325 128l125 129q103 -95 216 -95q35 0 57 14t22 38q0 21 -22 36t-95 43q-92 35 -137 78t-45 115q0 104 84 171t213 67q178 0 287 -104l-120 -134q-89 77 -185 77q-34 0 -55 -14t-21 -36q0 -20 21 -33t96 -43q90 -34 136 -78t46 -117q0 -108 -83.5 -175
t-214.5 -67zM359 747l-84 165h113l68 -61l101 61h128l-172 -165h-154z" />
    <glyph glyph-name="scaron" unicode="&#x161;" horiz-adv-x="511" 
d="M230 -13q-77 0 -147.5 25t-119.5 69l94 111q38 -34 87.5 -53.5t92.5 -19.5q48 0 48 33q0 14 -16 24t-58 27q-75 30 -113.5 64.5t-38.5 93.5q0 83 63.5 137.5t172.5 54.5q69 0 131.5 -22t102.5 -54l-91 -114q-78 58 -153 58q-47 0 -47 -31q0 -13 16 -23.5t59 -27.5
q73 -29 112 -63t39 -95q0 -83 -61 -138.5t-173 -55.5zM266 587l-84 165h113l68 -61l101 61h128l-172 -165h-154z" />
    <glyph glyph-name="Ydieresis" unicode="&#x178;" horiz-adv-x="677" 
d="M159 0l73 271l-141 429h209l69 -262l211 262h232l-391 -450l-67 -250h-195zM256 747l39 143h166l-39 -143h-166zM475 747l39 143h166l-39 -143h-166z" />
    <glyph glyph-name="Zcaron" unicode="&#x17d;" horiz-adv-x="681" 
d="M-36 0l37 141l446 395h-328l45 164h595l-38 -141l-446 -395h341l-44 -164h-608zM384 747l-84 165h113l68 -61l101 61h128l-172 -165h-154z" />
    <glyph glyph-name="zcaron" unicode="&#x17e;" horiz-adv-x="558" 
d="M-40 0l34 125l318 265h-238l40 151h486l-33 -125l-319 -265h249l-40 -151h-497zM280 587l-84 165h113l68 -61l101 61h128l-172 -165h-154z" />
    <glyph glyph-name="florin" unicode="&#x192;" horiz-adv-x="559" 
d="M55 -12q-51 0 -99 10l32 139q27 -7 50 -7q51 0 82 70l58 129h-63l33 144h94l35 76q37 85 96 124t149 39q72 0 120 -16l-32 -140q-33 12 -70 12q-65 0 -93 -66l-13 -29h117l-32 -144h-149l-78 -174q-40 -91 -96.5 -129t-140.5 -38z" />
    <glyph glyph-name="circumflex" unicode="&#x2c6;" 
d="M130 587l172 165h154l84 -165h-113l-68 61l-101 -61h-128z" />
    <glyph glyph-name="caron" unicode="&#x2c7;" 
d="M256 587l-84 165h113l68 -61l101 61h128l-172 -165h-154z" />
    <glyph glyph-name="breve" unicode="&#x2d8;" 
d="M359 586q-84 0 -131.5 44.5t-47.5 117.5v4h113q2 -26 21.5 -42t52.5 -16q62 0 96 58h114q-22 -77 -82 -121.5t-136 -44.5z" />
    <glyph glyph-name="dotaccent" unicode="&#x2d9;" 
d="M250 587l39 143h170l-39 -143h-170z" />
    <glyph glyph-name="ring" unicode="&#x2da;" 
d="M356 592q-54 0 -87 32t-33 80q0 60 43 102.5t104 42.5q54 0 87 -32t33 -80q0 -59 -43 -102t-104 -43zM359 653q32 0 52.5 25t20.5 58q0 22 -14.5 37.5t-37.5 15.5q-32 0 -52.5 -25.5t-20.5 -57.5q0 -23 14 -38t38 -15z" />
    <glyph glyph-name="ogonek" unicode="&#x2db;" 
d="M194 -167q-140 0 -140 82q0 45 45 95h118q-19 -30 -19 -53q0 -39 76 -40l-22 -81q-32 -3 -58 -3z" />
    <glyph glyph-name="tilde" unicode="&#x2dc;" 
d="M222 584l-89 40q28 69 70.5 106.5t90.5 37.5q41 0 84 -30q34 -25 51 -25q34 0 66 57l89 -40q-29 -70 -71 -107t-90 -37q-41 0 -84 30q-36 25 -52 25q-33 0 -65 -57z" />
    <glyph glyph-name="hungarumlaut" unicode="&#x2dd;" 
d="M116 588l149 184l148 -54l43 54l156 -57l-170 -127h-131l86 109l-150 -109h-131z" />
    <glyph glyph-name="Omega" unicode="&#x3a9;" horiz-adv-x="778" 
d="M-12 0l38 145h173l6 19q-57 16 -87.5 69.5t-30.5 118.5q0 87 36.5 157.5t96.5 114t134.5 67t153.5 23.5q118 0 198 -66t80 -169q0 -100 -70.5 -196.5t-181.5 -118.5l-6 -19h172l-38 -145h-302l64 242q78 11 128 77.5t50 134.5q0 50 -32 81.5t-92 31.5q-89 0 -150.5 -67
t-61.5 -149q0 -42 22 -72t66 -37l-64 -242h-302z" />
    <glyph glyph-name="pi" unicode="&#x3c0;" 
d="M0 0v700h500v-700h-500zM81 49h340l-171 255zM50 95l170 254l-170 256v-510zM451 95v510l-172 -256zM250 395l171 255h-340z" />
    <glyph glyph-name="afii10023" unicode="&#x401;" horiz-adv-x="669" 
d="M-12 0l188 700h561l-45 -165h-368l-29 -106h334l-41 -153h-334l-30 -111h374l-44 -165h-566zM263 747l39 143h166l-39 -143h-166zM482 747l39 143h166l-39 -143h-166z" />
    <glyph glyph-name="afii10051" unicode="&#x402;" horiz-adv-x="854" 
d="M497 -67q-65 0 -133 19l59 162q12 -2 39 -2q55 0 88 25t33 75q0 29 -21 49t-58 20q-72 0 -123 -38l-65 -243h-194l142 530h-180l45 170h614l-45 -170h-240l-31 -115q88 45 181 45q83 0 135.5 -59t52.5 -146q0 -137 -87 -229.5t-212 -92.5z" />
    <glyph glyph-name="afii10052" unicode="&#x403;" horiz-adv-x="572" 
d="M-12 0l187 700h494l-45 -170h-300l-142 -530h-194zM312 747l155 185l173 -57l-181 -128h-147z" />
    <glyph glyph-name="afii10053" unicode="&#x404;" horiz-adv-x="721" 
d="M392 -14q-154 0 -247.5 84.5t-93.5 230.5q0 105 50 198.5t147 154t220 60.5q99 0 177.5 -41t115.5 -112l-155 -109q-51 90 -145 90q-67 0 -116 -32.5t-75 -87.5h228l-35 -137h-213q9 -57 47.5 -92.5t96.5 -35.5q88 0 158 70l108 -126q-113 -115 -268 -115z" />
    <glyph glyph-name="afii10054" unicode="&#x405;" horiz-adv-x="645" 
d="M302 -12q-206 0 -325 128l125 129q103 -95 216 -95q35 0 57 14t22 38q0 21 -22 36t-95 43q-92 35 -137 78t-45 115q0 104 84 171t213 67q178 0 287 -104l-120 -134q-89 77 -185 77q-34 0 -55 -14t-21 -36q0 -20 21 -33t96 -43q90 -34 136 -78t46 -117q0 -108 -83.5 -175
t-214.5 -67z" />
    <glyph glyph-name="afii10055" unicode="&#x406;" horiz-adv-x="325" 
d="M-7 0l188 700h194l-188 -700h-194z" />
    <glyph glyph-name="afii10056" unicode="&#x407;" horiz-adv-x="325" 
d="M-7 0l188 700h194l-188 -700h-194zM86 747l39 143h166l-39 -143h-166zM305 747l39 143h166l-39 -143h-166z" />
    <glyph glyph-name="afii10057" unicode="&#x408;" horiz-adv-x="568" 
d="M197 -12q-74 0 -137.5 32t-100.5 91l132 115q50 -68 112 -68q43 0 75 32q28 28 53 119l105 391h193l-114 -428q-38 -142 -104 -208q-78 -76 -214 -76z" />
    <glyph glyph-name="afii10058" unicode="&#x409;" horiz-adv-x="1118" 
d="M40 -10q-72 0 -114 16l52 149q18 -4 44 -4q21 0 33.5 3.5t35 24t41.5 61.5t47 121t59 196l38 143h538l-59 -220h87q118 0 187 -56.5t69 -143.5q0 -132 -93.5 -206t-241.5 -74h-330l143 535h-163l-19 -71q-34 -125 -69 -213t-66 -138.5t-69.5 -78.5t-71 -36t-78.5 -8z
M670 163h101q55 0 91.5 23.5t36.5 72.5q0 29 -23.5 49t-64.5 20h-96z" />
    <glyph glyph-name="afii10059" unicode="&#x40a;" horiz-adv-x="1115" 
d="M-12 0l188 700h195l-66 -246h247l65 246h195l-66 -246h107q111 0 176.5 -53.5t65.5 -135.5q0 -125 -88.5 -195t-228.5 -70h-349l80 301h-247l-79 -301h-195zM666 163h118q49 0 81 21t32 64q0 25 -20.5 42.5t-56.5 17.5h-115z" />
    <glyph glyph-name="afii10060" unicode="&#x40b;" horiz-adv-x="854" 
d="M122 0l142 530h-180l45 170h614l-45 -170h-240l-31 -115q88 45 181 45q89 0 141 -42t52 -118q0 -33 -10 -69l-62 -231h-194l40 150q10 40 10 63q0 68 -71 68q-81 0 -133 -38l-65 -243h-194z" />
    <glyph glyph-name="afii10061" unicode="&#x40c;" horiz-adv-x="722" 
d="M-12 0l188 700h195l-76 -280l289 280h247l-330 -307l156 -393h-210l-101 270l-121 -111l-42 -159h-195zM367 747l155 185l173 -57l-181 -128h-147z" />
    <glyph glyph-name="afii10062" unicode="&#x40e;" horiz-adv-x="713" 
d="M153 -10q81 0 147 40.5t137 135.5l401 534h-219l-240 -332l-71 332h-206l135 -517q-35 -30 -68 -30q-44 0 -73 24l-114 -140q67 -47 171 -47zM468 745q-72 0 -113 40t-42 113l109 19q13 -60 61 -60q50 0 80 60l103 -19q-21 -73 -73 -113t-125 -40z" />
    <glyph glyph-name="afii10145" unicode="&#x40f;" horiz-adv-x="751" 
d="M168 -140l38 140h-218l187 700h194l-142 -530h239l142 530h194l-187 -700h-223l-38 -140h-186z" />
    <glyph glyph-name="afii10017" unicode="&#x410;" horiz-adv-x="775" 
d="M-74 0l487 705h190l109 -705h-204l-17 125h-270l-84 -125h-211zM319 276h156l-25 201z" />
    <glyph glyph-name="afii10018" unicode="&#x411;" horiz-adv-x="700" 
d="M-12 0l187 700h553l-44 -165h-359l-22 -81h123q111 0 176.5 -53.5t65.5 -135.5q0 -125 -88.5 -195t-228.5 -70h-363zM225 163h132q49 0 81 21t32 64q0 25 -20.5 42.5t-56.5 17.5h-129z" />
    <glyph glyph-name="afii10019" unicode="&#x412;" horiz-adv-x="714" 
d="M-12 0l188 700h291q134 0 193.5 -47t59.5 -121q0 -67 -41.5 -114t-115.5 -65q106 -38 106 -140q0 -95 -81 -154t-237 -59h-363zM219 156h147q50 0 79 20.5t29 53.5q0 55 -86 55h-134zM291 421h131q51 0 78.5 19t27.5 52q0 52 -84 52h-121z" />
    <glyph glyph-name="afii10020" unicode="&#x413;" horiz-adv-x="572" 
d="M-12 0l187 700h494l-45 -170h-300l-142 -530h-194z" />
    <glyph glyph-name="afii10021" unicode="&#x414;" horiz-adv-x="776" 
d="M-91 -140l82 310h57q61 82 104 172.5t91 270.5l23 87h543l-142 -530h79l-105 -310h-164l38 140h-382l-51 -140h-173zM256 170h217l99 365h-162l-21 -69q-55 -182 -133 -296z" />
    <glyph glyph-name="afii10022" unicode="&#x415;" horiz-adv-x="669" 
d="M-12 0l188 700h561l-45 -165h-368l-29 -106h334l-41 -153h-334l-30 -111h374l-44 -165h-566z" />
    <glyph glyph-name="afii10024" unicode="&#x416;" horiz-adv-x="1096" 
d="M-87 0l371 425l-155 275h212l143 -290l78 290h194l-75 -282l282 282h241l-325 -302l143 -398h-216l-90 263l-101 -90l-46 -173h-194l50 187l-46 81l-218 -268h-248z" />
    <glyph glyph-name="afii10025" unicode="&#x417;" horiz-adv-x="616" 
d="M257 -14q-197 0 -287 133l129 112q68 -81 160 -81q49 0 78 22.5t29 52.5q0 55 -87 55h-72l39 146h68q50 0 80 18.5t30 51.5q0 24 -20.5 39t-50.5 15q-72 0 -154 -68l-99 122q115 110 277 110q111 0 176.5 -53t65.5 -128q0 -139 -163 -184q104 -38 104 -141
q0 -97 -85.5 -159.5t-217.5 -62.5z" />
    <glyph glyph-name="afii10026" unicode="&#x418;" horiz-adv-x="764" 
d="M-12 0l188 700h191l-105 -394l376 394h181l-187 -700h-192l105 394l-376 -394h-181z" />
    <glyph glyph-name="afii10027" unicode="&#x419;" horiz-adv-x="764" 
d="M-12 0l188 700h191l-105 -394l376 394h181l-187 -700h-192l105 394l-376 -394h-181zM497 745q-72 0 -113 40t-42 113l109 19q13 -60 61 -60q50 0 80 60l103 -19q-21 -73 -73 -113t-125 -40z" />
    <glyph glyph-name="afii10028" unicode="&#x41a;" horiz-adv-x="722" 
d="M-12 0l188 700h195l-76 -280l289 280h247l-330 -307l156 -393h-210l-101 270l-121 -111l-42 -159h-195z" />
    <glyph glyph-name="afii10029" unicode="&#x41b;" horiz-adv-x="759" 
d="M40 -10q-72 0 -114 16l52 149q18 -4 44 -4q21 0 33.5 3.5t35 24t41.5 61.5t47 121t59 196l38 143h538l-187 -700h-194l143 535h-163l-19 -71q-34 -125 -69 -213t-66 -138.5t-69.5 -78.5t-71 -36t-78.5 -8z" />
    <glyph glyph-name="afii10030" unicode="&#x41c;" horiz-adv-x="866" 
d="M-12 0l188 700h196l93 -271l238 271h218l-188 -700h-195l107 402l-251 -274h-4l-103 272l-107 -400h-192z" />
    <glyph glyph-name="afii10031" unicode="&#x41d;" horiz-adv-x="757" 
d="M-12 0l188 700h195l-71 -262h247l70 262h195l-188 -700h-195l72 266h-247l-71 -266h-195z" />
    <glyph glyph-name="afii10032" unicode="&#x41e;" horiz-adv-x="813" 
d="M386 -13q-148 0 -241 89.5t-93 224.5q0 79 31.5 154t85.5 132t132.5 91.5t167.5 34.5q148 0 241 -89.5t93 -224.5q0 -79 -31.5 -154t-85.5 -132t-132.5 -91.5t-167.5 -34.5zM403 161q88 0 145 69.5t57 153.5q0 69 -40.5 112t-112.5 43q-87 0 -144.5 -70t-57.5 -153
q0 -69 40.5 -112t112.5 -43z" />
    <glyph glyph-name="afii10033" unicode="&#x41f;" horiz-adv-x="747" 
d="M-12 0l188 700h626l-188 -700h-195l143 530h-237l-142 -530h-195z" />
    <glyph glyph-name="afii10034" unicode="&#x420;" horiz-adv-x="672" 
d="M-12 0l188 700h229q166 0 240 -74q55 -55 55 -143q0 -129 -95.5 -205.5t-252.5 -76.5h-115l-54 -201h-195zM277 352h73q71 0 111 29.5t40 79.5q0 29 -20 49q-27 27 -83 27h-72z" />
    <glyph glyph-name="afii10035" unicode="&#x421;" horiz-adv-x="727" 
d="M382 -14q-147 0 -239 83.5t-92 222.5q0 105 52 200.5t154 158.5t231 63q105 0 178.5 -47t105.5 -130l-168 -90q-44 90 -141 90q-86 0 -147.5 -69t-61.5 -162q0 -66 39 -105t101 -39q79 0 150 71l131 -116q-116 -131 -293 -131z" />
    <glyph glyph-name="afii10036" unicode="&#x422;" horiz-adv-x="645" 
d="M151 0l143 530h-210l46 170h613l-45 -170h-210l-142 -530h-195z" />
    <glyph glyph-name="afii10037" unicode="&#x423;" horiz-adv-x="713" 
d="M153 -10q-104 0 -171 47l114 140q29 -24 73 -24q33 0 68 30l-135 517h206l71 -332l240 332h219l-401 -534q-71 -95 -137 -135.5t-147 -40.5z" />
    <glyph glyph-name="afii10038" unicode="&#x424;" horiz-adv-x="957" 
d="M291 -30l21 80q-131 10 -201.5 81t-70.5 182q0 154 110.5 254.5t291.5 100.5h37l17 62h195l-17 -64q133 -9 205.5 -78t72.5 -178q0 -156 -111 -259t-291 -103h-43l-21 -78h-195zM358 220l75 276h-15q-77 0 -127 -43.5t-50 -118.5q0 -50 31.5 -79.5t85.5 -34.5zM553 220
h21q76 0 126.5 43t50.5 118q0 50 -33 80t-90 34z" />
    <glyph glyph-name="afii10039" unicode="&#x425;" horiz-adv-x="713" 
d="M-75 0l341 366l-145 334h213l77 -197l173 197h234l-324 -348l154 -352h-214l-84 216l-190 -216h-235z" />
    <glyph glyph-name="afii10040" unicode="&#x426;" horiz-adv-x="768" 
d="M470 -140l38 140h-520l188 700h194l-143 -530h239l142 530h194l-142 -530h79l-105 -310h-164z" />
    <glyph glyph-name="afii10041" unicode="&#x427;" horiz-adv-x="709" 
d="M383 0l65 245q-79 -40 -191 -40q-86 0 -130.5 50.5t-44.5 130.5q0 41 12 85l63 229h194l-56 -211q-8 -30 -8 -50q0 -60 74 -60q77 0 133 38l76 283h194l-187 -700h-194z" />
    <glyph glyph-name="afii10042" unicode="&#x428;" horiz-adv-x="1100" 
d="M-12 0l187 700h194l-142 -530h199l142 530h194l-142 -530h199l142 530h194l-187 -700h-980z" />
    <glyph glyph-name="afii10043" unicode="&#x429;" horiz-adv-x="1121" 
d="M823 -140l38 140h-873l187 700h194l-142 -530h199l142 530h194l-142 -530h199l142 530h194l-142 -530h79l-105 -310h-164z" />
    <glyph glyph-name="afii10044" unicode="&#x42a;" horiz-adv-x="786" 
d="M101 0l142 530h-159l45 170h353l-59 -220h87q118 0 187 -56.5t69 -143.5q0 -132 -93.5 -206t-241.5 -74h-330zM338 163h101q55 0 91.5 23.5t36.5 72.5q0 29 -23.5 49t-64.5 20h-96z" />
    <glyph glyph-name="afii10045" unicode="&#x42b;" horiz-adv-x="987" 
d="M-12 0l187 700h194l-59 -220h87q118 0 187 -56.5t69 -143.5q0 -132 -93.5 -206t-241.5 -74h-330zM225 163h101q55 0 91.5 23.5t36.5 72.5q0 29 -23.5 49t-64.5 20h-96zM661 0l187 700h194l-187 -700h-194z" />
    <glyph glyph-name="afii10046" unicode="&#x42c;" horiz-adv-x="673" 
d="M-12 0l187 700h194l-59 -220h87q118 0 187 -56.5t69 -143.5q0 -132 -93.5 -206t-241.5 -74h-330zM225 163h101q55 0 91.5 23.5t36.5 72.5q0 29 -23.5 49t-64.5 20h-96z" />
    <glyph glyph-name="afii10047" unicode="&#x42d;" horiz-adv-x="721" 
d="M284 -14q-99 0 -177.5 41t-115.5 112l155 109q51 -90 145 -90q69 0 119 34.5t74 92.5h-230l35 137h211q-10 54 -48 87.5t-94 33.5q-88 0 -158 -70l-108 126q113 115 268 115q149 0 245 -85.5t96 -229.5q0 -105 -50 -198.5t-147 -154t-220 -60.5z" />
    <glyph glyph-name="afii10048" unicode="&#x42e;" horiz-adv-x="1082" 
d="M665 -14q-134 0 -219 79t-93 203h-100l-71 -268h-194l187 700h194l-70 -264h78q45 121 150.5 199.5t236.5 78.5q139 0 223.5 -87t84.5 -221q0 -111 -53.5 -207.5t-147.5 -154.5t-206 -58zM686 160q77 0 132 65.5t55 157.5q0 68 -37 112.5t-99 44.5q-77 0 -131.5 -66
t-54.5 -159q0 -68 36.5 -111.5t98.5 -43.5z" />
    <glyph glyph-name="afii10049" unicode="&#x42f;" horiz-adv-x="724" 
d="M-42 0l236 248q-104 53 -104 176q0 126 93.5 201t246.5 75h349l-187 -700h-194l56 212h-74l-183 -212h-239zM388 361h106l47 174h-108q-67 0 -104 -27.5t-37 -74.5q0 -35 27 -53.5t69 -18.5z" />
    <glyph glyph-name="afii10065" unicode="&#x430;" horiz-adv-x="597" 
d="M152 -11q-67 0 -109 40t-42 107q0 88 65 139.5t173 51.5q68 0 137 -21l2 7q5 22 5 33q0 58 -93 58q-78 0 -146 -27l-27 138q94 33 213 33q120 0 180.5 -45t60.5 -127q0 -36 -11 -78l-80 -298h-187l15 58q-74 -69 -156 -69zM240 106q36 0 68 28t43 70l5 18q-36 12 -71 12
q-45 0 -72 -21t-27 -57q0 -23 15 -36.5t39 -13.5z" />
    <glyph glyph-name="afii10066" unicode="&#x431;" horiz-adv-x="644" 
d="M302 -13q-125 0 -194.5 74t-69.5 201q0 73 16.5 141t50 129.5t94 103.5t139.5 55l289 45v-147l-296 -52q-66 -12 -98 -45.5t-38 -63.5q18 25 71.5 52.5t125.5 27.5q98 0 162 -58.5t64 -160.5q0 -126 -91 -214t-225 -88zM311 148q50 0 85 38.5t35 91.5q0 41 -24.5 67.5
t-65.5 26.5q-50 0 -85 -38.5t-35 -91.5q0 -41 24.5 -67.5t65.5 -26.5z" />
    <glyph glyph-name="afii10067" unicode="&#x432;" horiz-adv-x="605" 
d="M-21 0l145 541h269q104 0 150 -36t46 -94q0 -52 -32.5 -88t-89.5 -50q82 -29 82 -108q0 -74 -62.5 -119.5t-182.5 -45.5h-325zM198 123h77q39 0 61.5 16t22.5 42q0 43 -67 43h-67zM253 325h62q82 0 82 55q0 40 -65 40h-54z" />
    <glyph glyph-name="afii10068" unicode="&#x433;" horiz-adv-x="465" 
d="M-21 0l145 541h408l-41 -153h-218l-104 -388h-190z" />
    <glyph glyph-name="afii10069" unicode="&#x434;" horiz-adv-x="659" 
d="M-89 -110l70 263h49q85 119 150 362l7 26h482l-104 -388h73l-89 -263h-162l30 110h-297l-40 -110h-169zM229 153h145l63 237h-110l-6 -24q-13 -49 -42.5 -118.5t-49.5 -94.5z" />
    <glyph glyph-name="afii10070" unicode="&#x435;" horiz-adv-x="601" 
d="M286 -13q-119 0 -188.5 65t-69.5 175q0 127 91 226.5t234 99.5q113 0 171.5 -64.5t58.5 -159.5q0 -54 -21 -111h-359q7 -89 101 -89q56 0 115 43l88 -104q-93 -81 -221 -81zM216 315h193q5 15 5 29q0 30 -19 49.5t-55 19.5q-40 0 -73.5 -25.5t-50.5 -72.5z" />
    <glyph glyph-name="afii10072" unicode="&#x436;" horiz-adv-x="914" 
d="M-86 0l292 339l-112 202h195l93 -201l54 201h190l-54 -201l201 201h215l-244 -227l99 -314h-194l-61 186l-76 -69l-31 -117h-190l34 127l-32 58l-150 -185h-229z" />
    <glyph glyph-name="afii10073" unicode="&#x437;" horiz-adv-x="530" 
d="M209 -14q-81 0 -138 19t-106 61l92 118q82 -59 149 -59q83 0 83 49q0 39 -69 39h-68l31 119h59q36 0 53 15t17 34q0 14 -15 24t-45 10q-36 0 -80.5 -15.5t-73.5 -38.5l-61 104q106 88 258 88q101 0 155 -36t54 -94q0 -94 -111 -140q85 -31 85 -107q0 -86 -65.5 -138
t-203.5 -52z" />
    <glyph glyph-name="afii10074" unicode="&#x438;" horiz-adv-x="637" 
d="M-21 0l145 541h184l-73 -271l253 271h175l-145 -541h-184l72 271l-252 -271h-175z" />
    <glyph glyph-name="afii10075" unicode="&#x439;" horiz-adv-x="637" 
d="M-21 0l145 541h184l-73 -271l253 271h175l-145 -541h-184l72 271l-252 -271h-175zM405 585q-68 0 -106 39t-38 110l101 18q12 -58 58 -58t74 58l97 -18q-21 -71 -69.5 -110t-116.5 -39z" />
    <glyph glyph-name="afii10076" unicode="&#x43a;" horiz-adv-x="599" 
d="M-21 0l145 541h190l-52 -195l188 195h229l-247 -229l104 -312h-203l-55 180l-80 -73l-29 -107h-190z" />
    <glyph glyph-name="afii10077" unicode="&#x43b;" horiz-adv-x="638" 
d="M26 -7q-53 0 -86 14l45 141q20 -3 30 -3q26 0 42.5 13.5t44 79.5t63.5 199l28 104h467l-145 -541h-190l104 390h-100l-19 -67q-17 -60 -33.5 -107.5t-34 -81.5t-32 -58.5t-34 -40t-34 -24t-37 -12.5t-37.5 -5t-42 -1z" />
    <glyph glyph-name="afii10078" unicode="&#x43c;" horiz-adv-x="739" 
d="M-21 0l145 541h177l81 -187l170 187h209l-145 -541h-190l71 267l-181 -184l-80 180l-70 -263h-187z" />
    <glyph glyph-name="afii10079" unicode="&#x43d;" horiz-adv-x="634" 
d="M-21 0l145 541h190l-52 -192h156l52 192h190l-145 -541h-190l52 196h-156l-52 -196h-190z" />
    <glyph glyph-name="afii10080" unicode="&#x43e;" horiz-adv-x="644" 
d="M295 -13q-121 0 -193 71t-72 181q0 125 92.5 219.5t225.5 94.5q122 0 194 -71t72 -180q0 -126 -92.5 -220.5t-226.5 -94.5zM306 145q54 0 90 46.5t36 103.5q0 45 -26 72.5t-68 27.5q-54 0 -90 -46.5t-36 -102.5q0 -46 26 -73.5t68 -27.5z" />
    <glyph glyph-name="afii10081" unicode="&#x43f;" horiz-adv-x="626" 
d="M-21 0l145 541h528l-145 -541h-190l104 388h-148l-104 -388h-190z" />
    <glyph glyph-name="afii10082" unicode="&#x440;" horiz-adv-x="672" 
d="M-64 -160l188 701h190l-16 -57q71 69 154 69t137.5 -60t54.5 -162q0 -144 -86.5 -243.5t-204.5 -99.5q-108 0 -164 86l-63 -234h-190zM320 146q54 0 93 45.5t39 109.5q0 43 -25.5 69t-66.5 26q-54 0 -94 -46t-40 -108q0 -43 26 -69.5t68 -26.5z" />
    <glyph glyph-name="afii10083" unicode="&#x441;" horiz-adv-x="563" 
d="M281 -13q-111 0 -182 64.5t-71 172.5q0 136 95 232t230 96q90 0 148.5 -41t81.5 -107l-149 -77q-29 68 -93 68q-53 0 -91.5 -49t-38.5 -112q0 -41 23.5 -65.5t59.5 -24.5q52 0 102 50l116 -101q-91 -106 -231 -106z" />
    <glyph glyph-name="afii10084" unicode="&#x442;" horiz-adv-x="522" 
d="M101 0l104 388h-163l41 153h506l-41 -153h-153l-104 -388h-190z" />
    <glyph glyph-name="afii10085" unicode="&#x443;" horiz-adv-x="622" 
d="M94 -163q-84 0 -144 39l85 139q37 -27 75 -27q27 0 47 20l-70 533h193l22 -325l182 325h200l-335 -538q-58 -91 -116.5 -128.5t-138.5 -37.5z" />
    <glyph glyph-name="afii10086" unicode="&#x444;" horiz-adv-x="922" 
d="M251 -160l49 185q-56 -34 -114 -34q-75 0 -115.5 54t-40.5 158q0 62 18 122.5t52 111t90.5 82t126.5 31.5q62 0 112 -45l52 195h190l-51 -189q58 39 115 39q76 0 116.5 -54.5t40.5 -158.5q0 -62 -18 -122t-52.5 -111t-90.5 -82t-125 -31q-64 0 -114 39l-51 -190h-190z
M286 144q26 0 49 10l62 232q-24 11 -53 11q-53 0 -86.5 -49t-33.5 -123q0 -35 15 -58t47 -23zM578 144q52 0 86.5 48t34.5 122q0 36 -15.5 59.5t-47.5 23.5q-24 0 -49 -11l-62 -231q24 -11 53 -11z" />
    <glyph glyph-name="afii10087" unicode="&#x445;" horiz-adv-x="589" 
d="M-62 0l259 281l-112 260h197l47 -131l109 131h214l-252 -274l114 -267h-197l-49 137l-116 -137h-214z" />
    <glyph glyph-name="afii10088" unicode="&#x446;" horiz-adv-x="642" 
d="M370 -110l30 110h-421l145 541h190l-104 -388h148l104 388h190l-104 -388h73l-89 -263h-162z" />
    <glyph glyph-name="afii10089" unicode="&#x447;" horiz-adv-x="609" 
d="M300 0l46 174q-59 -24 -140 -24q-69 0 -108.5 38.5t-39.5 101.5q0 24 8 56l53 195h191l-41 -153q-7 -28 -7 -40q0 -43 41 -43q51 0 84 21l58 215h190l-145 -541h-190z" />
    <glyph glyph-name="afii10090" unicode="&#x448;" horiz-adv-x="934" 
d="M-21 0l145 541h190l-104 -388h133l104 388h190l-104 -388h133l104 388h190l-145 -541h-836z" />
    <glyph glyph-name="afii10091" unicode="&#x449;" horiz-adv-x="950" 
d="M678 -110l30 110h-729l145 541h190l-104 -388h133l104 388h190l-104 -388h133l104 388h190l-104 -388h73l-89 -263h-162z" />
    <glyph glyph-name="afii10092" unicode="&#x44a;" horiz-adv-x="661" 
d="M66 0l104 388h-131l41 153h321l-46 -170h77q92 0 145 -43.5t53 -111.5q0 -102 -72.5 -159t-186.5 -57h-305zM292 136h61q39 0 64 16.5t25 50.5q0 20 -16 34t-45 14h-58z" />
    <glyph glyph-name="afii10093" unicode="&#x44b;" horiz-adv-x="854" 
d="M-21 0l145 541h190l-46 -170h77q92 0 145 -43.5t53 -111.5q0 -102 -72.5 -159t-186.5 -57h-305zM205 136h61q39 0 64 16.5t25 50.5q0 20 -16 34t-45 14h-58zM545 0l145 541h190l-145 -541h-190z" />
    <glyph glyph-name="afii10094" unicode="&#x44c;" horiz-adv-x="574" 
d="M-21 0l145 541h190l-46 -170h77q92 0 145 -43.5t53 -111.5q0 -102 -72.5 -159t-186.5 -57h-305zM205 136h61q39 0 64 16.5t25 50.5q0 20 -16 34t-45 14h-58z" />
    <glyph glyph-name="afii10095" unicode="&#x44d;" horiz-adv-x="563" 
d="M221 -13q-91 0 -152 37.5t-91 98.5l144 89q30 -71 98 -71q38 0 68.5 21t47.5 57h-156l29 105h141q-8 36 -32.5 56t-55.5 20q-62 0 -109 -47l-106 109q84 90 231 90q109 0 181 -73t72 -183q0 -135 -90 -222t-220 -87z" />
    <glyph glyph-name="afii10096" unicode="&#x44e;" horiz-adv-x="903" 
d="M565 -13q-109 0 -178.5 57.5t-83.5 151.5h-82l-52 -196h-190l145 541h190l-52 -192h59q35 89 115.5 146.5t181.5 57.5q121 0 188 -70.5t67 -180.5q0 -127 -87.5 -221t-220.5 -94zM571 145q53 0 86.5 46.5t33.5 103.5q0 46 -23 73t-65 27q-53 0 -87 -46t-34 -103
q0 -47 23.5 -74t65.5 -27z" />
    <glyph glyph-name="afii10097" unicode="&#x44f;" horiz-adv-x="619" 
d="M-44 0l170 189q-17 11 -28 23q-43 44 -43 111q0 100 74 159t194 59h318l-145 -541h-191l41 156h-35l-128 -156h-227zM314 283h69l31 115h-71q-45 0 -69 -18t-24 -50q0 -19 11 -30q18 -17 53 -17z" />
    <glyph glyph-name="afii10071" unicode="&#x451;" horiz-adv-x="601" 
d="M286 -13q-119 0 -188.5 65t-69.5 175q0 127 91 226.5t234 99.5q113 0 171.5 -64.5t58.5 -159.5q0 -54 -21 -111h-359q7 -89 101 -89q56 0 115 43l88 -104q-93 -81 -221 -81zM216 315h193q5 15 5 29q0 30 -19 49.5t-55 19.5q-40 0 -73.5 -25.5t-50.5 -72.5zM182 587
l39 143h166l-39 -143h-166zM401 587l39 143h166l-39 -143h-166z" />
    <glyph glyph-name="afii10099" unicode="&#x452;" horiz-adv-x="632" 
d="M326 -14q-61 0 -103 14l51 153q4 -1 27 -1q37 0 65 34.5t28 84.5q0 70 -59 70q-74 0 -101 -98l-65 -243h-190l144 541h-62l34 128h62l17 61h190l-17 -61h158l-34 -128h-158l-27 -105q79 74 154 74q79 0 117.5 -45t38.5 -118q0 -39 -11 -83l-32 -119q-24 -88 -79.5 -123.5
t-147.5 -35.5z" />
    <glyph glyph-name="afii10100" unicode="&#x453;" horiz-adv-x="465" 
d="M-21 0l145 541h408l-41 -153h-218l-104 -388h-190zM199 587l155 185l173 -57l-181 -128h-147z" />
    <glyph glyph-name="afii10101" unicode="&#x454;" horiz-adv-x="563" 
d="M280 -13q-110 0 -181.5 68.5t-71.5 177.5q0 135 90.5 227t219.5 92q171 0 238 -136l-137 -84q-29 68 -100 68q-37 0 -67 -21t-47 -55h154l-29 -105h-142q6 -38 31.5 -59t57.5 -21q58 0 111 53l106 -109q-89 -96 -233 -96z" />
    <glyph glyph-name="afii10102" unicode="&#x455;" horiz-adv-x="511" 
d="M230 -13q-77 0 -147.5 25t-119.5 69l94 111q38 -34 87.5 -53.5t92.5 -19.5q48 0 48 33q0 14 -16 24t-58 27q-75 30 -113.5 64.5t-38.5 93.5q0 83 63.5 137.5t172.5 54.5q69 0 131.5 -22t102.5 -54l-91 -114q-78 58 -153 58q-47 0 -47 -31q0 -13 16 -23.5t59 -27.5
q73 -29 112 -63t39 -95q0 -83 -61 -138.5t-173 -55.5z" />
    <glyph glyph-name="afii10103" unicode="&#x456;" horiz-adv-x="301" 
d="M-17 0l145 541h190l-145 -541h-190zM138 590l38 140h198l-38 -140h-198z" />
    <glyph glyph-name="afii10104" unicode="&#x457;" horiz-adv-x="301" 
d="M29 587l39 143h166l-39 -143h-166zM248 587l39 143h166l-39 -143h-166zM-17 0l145 541h190l-145 -541h-190z" />
    <glyph glyph-name="afii10105" unicode="&#x458;" horiz-adv-x="303" 
d="M-53 -163q-43 0 -81 7l33 126q12 -3 24 -3q29 0 46 17.5t28 60.5l133 496h190l-140 -520q-28 -103 -83 -143.5t-150 -40.5zM139 590l38 140h198l-38 -140h-198z" />
    <glyph glyph-name="afii10106" unicode="&#x459;" horiz-adv-x="920" 
d="M26 -7q-53 0 -86 14l45 141q20 -3 30 -3q26 0 42.5 13.5t44 79.5t63.5 199l28 104h467l-46 -170h77q92 0 145 -43.5t53 -111.5q0 -102 -72.5 -159t-186.5 -57h-305l104 390h-100l-19 -67q-17 -60 -33.5 -107.5t-34 -81.5t-32 -58.5t-34 -40t-34 -24t-37 -12.5t-37.5 -5
t-42 -1zM551 136h61q39 0 64 16.5t25 50.5q0 20 -16 34t-45 14h-58z" />
    <glyph glyph-name="afii10107" unicode="&#x45a;" horiz-adv-x="920" 
d="M-21 0l145 541h190l-49 -179h156l49 179h190l-49 -179h77q92 0 146.5 -42t54.5 -109q0 -101 -72 -156t-187 -55h-305l58 221h-156l-58 -221h-190zM551 136h61q89 0 89 62q0 19 -17.5 31.5t-46.5 12.5h-58z" />
    <glyph glyph-name="afii10108" unicode="&#x45b;" horiz-adv-x="632" 
d="M-21 0l144 541h-62l34 128h62l17 61h190l-17 -61h158l-34 -128h-158l-28 -105q70 74 155 74q73 0 115 -43.5t42 -118.5q0 -37 -16 -97l-66 -251h-190l64 240q6 21 6 44q0 57 -60 57q-74 0 -101 -98l-65 -243h-190z" />
    <glyph glyph-name="afii10109" unicode="&#x45c;" horiz-adv-x="599" 
d="M-21 0l145 541h190l-52 -195l188 195h229l-247 -229l104 -312h-203l-55 180l-80 -73l-29 -107h-190zM266 587l155 185l173 -57l-181 -128h-147z" />
    <glyph glyph-name="afii10110" unicode="&#x45e;" horiz-adv-x="622" 
d="M94 -163q-84 0 -144 39l85 139q37 -27 75 -27q27 0 47 20l-70 533h193l22 -325l182 325h200l-335 -538q-58 -91 -116.5 -128.5t-138.5 -37.5zM385 585q-68 0 -106 39t-38 110l101 18q12 -58 58 -58t74 58l97 -18q-21 -71 -69.5 -110t-116.5 -39z" />
    <glyph glyph-name="afii10193" unicode="&#x45f;" horiz-adv-x="626" 
d="M122 -110l30 110h-173l145 541h190l-104 -388h148l104 388h190l-145 -541h-175l-30 -110h-180z" />
    <glyph glyph-name="afii10050" unicode="&#x490;" horiz-adv-x="592" 
d="M-12 0l187 700h318l38 140h164l-61 -310h-310l-142 -530h-194z" />
    <glyph glyph-name="afii10098" unicode="&#x491;" horiz-adv-x="465" 
d="M-21 0l145 541h228l29 110h162l-52 -263h-218l-104 -388h-190z" />
    <glyph glyph-name="endash" unicode="&#x2013;" horiz-adv-x="526" 
d="M33 231l44 163h438l-44 -163h-438z" />
    <glyph glyph-name="emdash" unicode="&#x2014;" horiz-adv-x="896" 
d="M33 231l44 163h808l-44 -163h-808z" />
    <glyph glyph-name="quoteleft" unicode="&#x2018;" horiz-adv-x="302" 
d="M63 344l45 169q26 98 83.5 143.5t167.5 50.5l8 -74q-113 -11 -131 -94h77l-53 -195h-197z" />
    <glyph glyph-name="quoteright" unicode="&#x2019;" horiz-adv-x="302" 
d="M66 338l-8 73q113 11 131 94h-77l53 195h197l-45 -169q-26 -97 -83.5 -143t-167.5 -50z" />
    <glyph glyph-name="quotesinglbase" unicode="&#x201a;" horiz-adv-x="302" 
d="M-66 -167l-8 73q112 11 130 94h-76l52 195h198l-45 -168q-27 -98 -84 -144t-167 -50z" />
    <glyph glyph-name="quotedblleft" unicode="&#x201c;" horiz-adv-x="565" 
d="M64 343l45 169q26 98 82 143.5t166 50.5l8 -74q-110 -11 -128 -94h74l-52 -195h-195zM330 343l45 169q26 98 82 143.5t166 50.5l8 -74q-110 -11 -128 -94h74l-52 -195h-195z" />
    <glyph glyph-name="quotedblright" unicode="&#x201d;" horiz-adv-x="565" 
d="M67 338l-8 73q110 11 128 94h-74l52 195h195l-45 -169q-26 -98 -82.5 -143.5t-165.5 -49.5zM333 338l-8 73q110 11 128 94h-74l52 195h195l-45 -169q-26 -98 -82.5 -143.5t-165.5 -49.5z" />
    <glyph glyph-name="quotedblbase" unicode="&#x201e;" horiz-adv-x="565" 
d="M-66 -167l-8 73q110 11 128 94h-74l52 195h195l-45 -168q-26 -98 -82.5 -144t-165.5 -50zM200 -167l-8 73q110 11 128 94h-74l52 195h195l-45 -168q-26 -98 -82.5 -144t-165.5 -50z" />
    <glyph glyph-name="dagger" unicode="&#x2020;" horiz-adv-x="412" 
d="M143 223l83 270l-129 -13l28 104l121 -13l19 129h112l-50 -129l128 13l-28 -104l-122 13l-62 -270h-100z" />
    <glyph glyph-name="daggerdbl" unicode="&#x2021;" horiz-adv-x="422" 
d="M82 0l50 129l-127 -13l27 104l122 -13l26 143l51 143l-129 -13l28 104l121 -13l19 129h112l-50 -129l127 13l-28 -104l-121 13l-26 -143l-52 -143l130 13l-28 -104l-121 13l-19 -129h-112z" />
    <glyph glyph-name="bullet" unicode="&#x2022;" horiz-adv-x="501" 
d="M246 180q-63 0 -98.5 37t-35.5 97q0 81 53 146t134 65q62 0 98 -37t36 -97q0 -81 -53.5 -146t-133.5 -65z" />
    <glyph glyph-name="ellipsis" unicode="&#x2026;" horiz-adv-x="858" 
d="M-20 0l51 192h195l-52 -192h-194zM260 0l51 192h195l-52 -192h-194zM540 0l51 192h195l-52 -192h-194z" />
    <glyph glyph-name="perthousand" unicode="&#x2030;" horiz-adv-x="1349" 
d="M68 0l689 700h141l-690 -700h-140zM683 -10q-78 0 -122.5 45.5t-44.5 117.5q0 85 57.5 151t145.5 66q78 0 122.5 -45.5t44.5 -117.5q0 -85 -57.5 -151t-145.5 -66zM688 95q36 0 59 33t23 74q0 28 -15.5 45.5t-40.5 17.5q-36 0 -59 -33t-23 -74q0 -28 15.5 -45.5
t40.5 -17.5zM1109 -10q-78 0 -122.5 45.5t-44.5 117.5q0 85 57.5 151t144.5 66q78 0 122.5 -45.5t44.5 -117.5q0 -85 -57.5 -151t-144.5 -66zM1114 95q35 0 58 33t23 74q0 28 -15 45.5t-41 17.5q-35 0 -58 -33t-23 -74q0 -28 15 -45.5t41 -17.5zM247 330q-78 0 -123 45.5
t-45 117.5q0 85 57.5 151t145.5 66q78 0 122.5 -45.5t44.5 -117.5q0 -85 -57.5 -151t-144.5 -66zM252 435q35 0 58 33t23 74q0 28 -15 45.5t-41 17.5q-35 0 -58 -33t-23 -74q0 -28 15 -45.5t41 -17.5z" />
    <glyph glyph-name="guilsinglleft" unicode="&#x2039;" horiz-adv-x="357" 
d="M133 25l-105 219l13 49l218 214l104 -96l-168 -163l79 -160z" />
    <glyph glyph-name="guilsinglright" unicode="&#x203a;" horiz-adv-x="357" 
d="M96 25l-105 96l168 164l-79 160l141 62l106 -219l-14 -48z" />
    <glyph glyph-name="fraction" unicode="&#x2044;" horiz-adv-x="546" 
d="M-140 -98l694 856h159l-695 -856h-158z" />
    <glyph glyph-name="Euro" unicode="&#x20ac;" horiz-adv-x="677" 
d="M385 -14q-114 0 -189.5 64.5t-86.5 172.5h-90l28 104h67q6 34 11 50h-65l28 104h65q45 106 131 169.5t205 63.5q178 0 246 -147l-142 -95q-40 75 -119 75q-77 0 -123 -68h169l-27 -101h-180q-8 -26 -12 -52h178l-27 -101h-154q16 -72 95 -72q67 0 126 59l111 -119
q-101 -107 -245 -107z" />
    <glyph glyph-name="afii61352" unicode="&#x2116;" horiz-adv-x="1098" 
d="M-12 0l187 700h181l124 -350l94 350h202l-187 -700h-170l-132 364l-97 -364h-202zM711 110l31 117h292l-31 -117h-292zM914 273q-64 0 -101.5 39.5t-37.5 100.5q0 80 54.5 138.5t132.5 58.5q64 0 101.5 -40t37.5 -100q0 -80 -55 -138.5t-132 -58.5zM929 371
q24 0 42.5 24.5t18.5 59.5q0 24 -12 40.5t-31 16.5q-24 0 -42.5 -24.5t-18.5 -59.5q0 -25 12 -41t31 -16z" />
    <glyph glyph-name="published" unicode="&#x2117;" horiz-adv-x="830" 
d="M437 -14q-151 0 -256 107t-105 257q0 149 106 256.5t257 107.5t256 -107t105 -257q0 -149 -106 -256.5t-257 -107.5zM437 26q136 0 228.5 95.5t92.5 230.5q0 134 -92 228t-227 94q-136 0 -228.5 -95.5t-92.5 -230.5q0 -134 92 -228t227 -94zM295 164v385h166
q74 0 117 -36.5t43 -101.5t-45.5 -101t-119.5 -36h-53v-110h-108zM403 358h50q28 0 44.5 13.5t16.5 37.5q0 50 -62 50h-49v-101z" />
    <glyph glyph-name="servicemark" unicode="&#x2120;" 
d="M0 0v700h500v-700h-500zM81 49h340l-171 255zM50 95l170 254l-170 256v-510zM451 95v510l-172 -256zM250 395l171 255h-340z" />
    <glyph glyph-name="trademark" unicode="&#x2122;" horiz-adv-x="695" 
d="M130 392l63 233h-92l20 75h270l-20 -75h-92l-62 -233h-87zM357 392l82 308h87l41 -119l105 119h95l-82 -308h-85l48 180l-111 -122h-3l-45 122l-48 -180h-84z" />
    <glyph glyph-name="partialdiff" unicode="&#x2202;" 
d="M0 0v700h500v-700h-500zM81 49h340l-171 255zM50 95l170 254l-170 256v-510zM451 95v510l-172 -256zM250 395l171 255h-340z" />
    <glyph glyph-name="Delta" unicode="&#x2206;" horiz-adv-x="760" 
d="M-70 0l471 700h180l97 -700h-748zM259 170h196l-19 293z" />
    <glyph glyph-name="product" unicode="&#x220f;" 
d="M0 0v700h500v-700h-500zM81 49h340l-171 255zM50 95l170 254l-170 256v-510zM451 95v510l-172 -256zM250 395l171 255h-340z" />
    <glyph glyph-name="summation" unicode="&#x2211;" 
d="M0 0v700h500v-700h-500zM81 49h340l-171 255zM50 95l170 254l-170 256v-510zM451 95v510l-172 -256zM250 395l171 255h-340z" />
    <glyph glyph-name="minus" unicode="&#x2212;" horiz-adv-x="640" 
d="M74 269l45 167h491l-45 -167h-491z" />
    <glyph glyph-name="radical" unicode="&#x221a;" horiz-adv-x="596" 
d="M282 -128l-179 351h-106v118h175l96 -185l268 642h134z" />
    <glyph glyph-name="infinity" unicode="&#x221e;" horiz-adv-x="889" 
d="M284 135q-96 0 -152 62t-56 159q0 95 54 154.5t149 59.5q64 0 107 -31.5t89 -94.5q44 63 87.5 94.5t109.5 31.5q95 0 149 -59.5t54 -154.5q0 -96 -54 -158.5t-149 -62.5q-108 0 -197 118q-42 -57 -86.5 -87.5t-104.5 -30.5zM281 273q60 0 115 78q-59 82 -116 82
q-33 0 -52.5 -23.5t-19.5 -57.5q0 -35 19.5 -57t53.5 -22zM670 273q35 0 54 22.5t19 57.5q0 34 -21 57t-55 23q-54 0 -113 -82q55 -78 116 -78z" />
    <glyph glyph-name="integral" unicode="&#x222b;" 
d="M0 0v700h500v-700h-500zM81 49h340l-171 255zM50 95l170 254l-170 256v-510zM451 95v510l-172 -256zM250 395l171 255h-340z" />
    <glyph glyph-name="approxequal" unicode="&#x2248;" horiz-adv-x="640" 
d="M96 122l-92 26q28 73 85.5 131.5t121.5 58.5q41 0 119 -29.5t103 -29.5q49 0 82 53l92 -25q-31 -76 -86 -133.5t-121 -57.5q-39 0 -123 30t-103 30q-21 0 -42.5 -16t-35.5 -38zM164 373l-92 26q27 72 84.5 131t122.5 59q41 0 119 -29.5t103 -29.5q48 0 81 53l92 -25
q-30 -75 -85.5 -133t-121.5 -58q-39 0 -123 30t-103 30q-21 0 -42.5 -16t-34.5 -38z" />
    <glyph glyph-name="notequal" unicode="&#x2260;" horiz-adv-x="640" 
d="M157 -11l-120 68l58 77h-57l45 167h139l78 102h-190l45 167h272l110 145l119 -68l-59 -77h50l-45 -167h-131l-78 -102h181l-44 -167h-263z" />
    <glyph glyph-name="lessequal" unicode="&#x2264;" horiz-adv-x="640" 
d="M8 -16l42 157h491l-42 -157h-491zM547 165l-444 168l47 177l535 168l-48 -183l-348 -79l306 -79z" />
    <glyph glyph-name="greaterequal" unicode="&#x2265;" horiz-adv-x="640" 
d="M17 -16l42 157h491l-42 -157h-491zM67 165l48 186l348 79l-306 79l48 169l443 -168l-47 -177z" />
    <glyph glyph-name="lozenge" unicode="&#x25ca;" horiz-adv-x="640" 
d="M263 -35l-194 391l196 391h140l196 -391l-196 -391h-142zM335 125l104 231l-104 231l-105 -231z" />
    <glyph glyph-name="cyrBreve" unicode="&#xf6d1;" 
d="M353 585q-72 0 -113 40t-42 113l109 19q13 -60 61 -60q50 0 80 60l103 -19q-21 -73 -73 -113t-125 -40z" />
    <glyph glyph-name="cyrbreve" unicode="&#xf6d4;" 
d="M352 585q-68 0 -106 39t-38 110l101 18q12 -58 58 -58t74 58l97 -18q-21 -71 -69.5 -110t-116.5 -39z" />
    <glyph glyph-name="apple" unicode="&#xf8ff;" 
d="M0 0v700h500v-700h-500zM81 49h340l-171 255zM50 95l170 254l-170 256v-510zM451 95v510l-172 -256zM250 395l171 255h-340z" />
    <glyph glyph-name="nbspace" horiz-adv-x="277" 
 />
    </font>
</defs>
</svg>
